Вдребезги (Роман Каримов) [2011, Россия, черная комедия, HDTVRip 1080p] Sub Eng + Original Rus

 
Автор Сообщение

TorrentFilm ®

Пол:

Стаж: 2 года

Сообщений: 7741



Награды: Нет

Торрент-статистика

Создавать темы 01-Янв-2016 00:06

[Цитировать]

Страна: Россия
Студия: Синема-Прайм, Парадиз
Жанр: черная комедия
Год выпуска: 2011
Продолжительность: 01:32:55
Режиссер: Роман Каримов
В ролях: Никита Дювбанов, Артем Ткаченко, Равшана Куркова, Иван Николаев, Александр Плющев, Ирина Вилкова, Кристина Казурова, Евгения Абрамова
Описание: Что делать с людьми, которые нам так мешают в нашей жизни? Может их убить? А можем ли мы убить? А кто может убить?
…Две девушки-маньячки сбивают велосипедиста, убивают педофила, угоняют машину у гламурного подонка…
…Известный ди-джей ведет скандальное шоу, где прикалывается над слушателями. После очередного эфира ди-джея похищают…
… Жена, мечтающая порвать с мужем, приглашает на день рождения босса-любовника. Пока она ходила за сигаретами, в доме происходит убийство… Пути героев этих историй, составляющих абсурдно-жестокую черную комедию, пересекаются на загородном шоссе, когда судьба сама расставляет все точки над Ё…
Тип релиза: HDTVRip 1080p
Контейнер: MKV
Видео: MPEG-4 AVC, 1920x816 (2.353), ~15,2 Mbps, 24 fps
Аудио: русский, DTS, 5.1, 48000, 1536 кб/сек
Cубтитры: английские

Сэмпл

mi

Полное имя : C:\Vdrebezgi (2011) HD 24fps (rutracker) - sample.mkv
Формат : Matroska
Версия формата : Version 2
Размер файла : 252 MiB
Продолжительность : 2mn 4s
Общий поток : 17.0 Mbps
Дата кодирования : UTC 2012-07-22 08:36:06
Программа кодирования : mkvmerge v5.7.0 ('The Whirlwind') built on Jul 8 2012 20:08:51
Библиотека кодирования : libebml v1.2.3 + libmatroska v1.3.0
Video
Идентификатор : 1
Формат : AVC
Формат/Информация : Advanced Video Codec
Профиль формата : Main@L4.2
Параметр CABAC формата : Yes
Параметр ReFrames формата : 3 frames
Идентификатор кодека : V_MPEG4/ISO/AVC
Продолжительность : 2mn 4s
Битрейт : 15.2 Mbps
Ширина : 1 920 pixels
Высота : 816 pixels
Соотношение сторон : 2.35:1
Частота кадров : 24.000 fps
Стандарт вещания : PAL
Цветовое пространство : YUV
Субдискретизация насыщенности : 4:2:0
Битовая глубина : 8 bits
Тип развёртки : Progressive
Бит/(Пиксели*Кадры) : 0.404
Размер потока : 225 MiB (89%)
Язык : Russian
Default : Yes
Forced : No
Audio
Идентификатор : 2
Формат : DTS
Формат/Информация : Digital Theater Systems
Идентификатор кодека : A_DTS
Продолжительность : 2mn 4s
Вид битрейта : Constant
Битрейт : 1 510 Kbps
Каналы : 6 channels
Расположение каналов : Front: L C R, Side: L R, LFE
Частота : 48.0 KHz
Битовая глубина : 24 bits
Метод сжатия : Lossy
Задержка видео : 2ms
Размер потока : 22.4 MiB (9%)
Заголовок : DTS 5.1
Язык : Russian
Default : Yes
Forced : No
Text
Идентификатор : 3
Формат : UTF-8
Идентификатор кодека : S_TEXT/UTF8
Идентификатор кодека/Информация : UTF-8 Plain Text
Заголовок : English subs
Язык : English
Default : No
Forced : No
ТОРРЕНТ БЫЛ ПЕРЕЗАЛИТ 22.07.2012
[Профиль] [ЛС]
Показать сообщения:    

Текущее время: Сегодня 20:46

Часовой пояс: GMT



Вы не можете начинать темы
Вы не можете отвечать на сообщения
Вы не можете редактировать свои сообщения
Вы не можете удалять свои сообщения
Вы не можете голосовать в опросах
Вы не можете прикреплять файлы к сообщениям
Вы не можете скачивать файлы