ВДНХ (Александра Дубровская) [2015, Документальный, HDTV 720p]

 
Автор Сообщение

TorrentFilm ®

Пол:

Стаж: 2 года

Сообщений: 7741



Награды: Нет

Торрент-статистика

Создавать темы 12-Апр-2015 00:03

[Цитировать]

ВДНХ- Год выпуска: 2015
Страна: Россия
Канал: Первый Канал HD
Жанр: Документальный
Продолжительность: 0:49:01
Режиссер: Александра Дубровская-Описание: Первый канал представляет самый масштабный документальный проект о ВДНХ, рассказывающий об истории и тайнах одной из живых легенд советской империи, которая не канула в лету вместе с ушедшей эпохой (хотя и была на грани), но возродилась и обрела новую жизнь и новые смыслы.-Автор рипа: lrn
Автор записи: riper.am
Сэмпл: sendfile-Тип релиза: HDTV 720p
Контейнер: MKV
Видео: 1280x720 (16:9), 25,000 fps, H264, ~4000 kbps avg, ~0.174 bit/pixel
Аудио: 48 kHz, AC3 Dolby Digital, 2/0 (L,R) ch, ~192.00 kbps avg-

MediaInfo

GeneralUnique ID : 235183344486242629956208372098346125432 (0xB0EEAA20639FE70383AA7E4181960878)Complete name : E:\uTorrent.Temp\Temp\VDNH.2015.HDTV.720p.x264-lrn.mkvFormat : MatroskaFormat version : Version 4 / Version 2File size : 1.44 GiBDuration : 49mn 1sOverall bit rate : 4 196 KbpsMovie name : VDNH.2015.HDTV.720p.x264-lrnEncoded date : UTC 2010-02-22 21:41:31Writing application : mkvmerge v5.9.0 ('On The Loose') built on Dec 9 2012 15:37:01Writing library : libebml v1.3.0 + libmatroska v1.4.0DURATION : 00:49:01.640000000NUMBER_OF_FRAMES : 73541NUMBER_OF_BYTES : 1471675655_STATISTICS_WRITING_APP : mkvmerge v7.7.0 ('Six Voices') 32bit built on Feb 28 2015 23:23:00_STATISTICS_WRITING_DATE_UT : 2015-04-04 19:51:12_STATISTICS_TAGS : BPS DURATION NUMBER_OF_FRAMES NUMBER_OF_BYTES
VideoID : 1Format : AVCFormat/Info : Advanced Video CodecFormat profile : High@L4.1Format settings, CABAC : YesFormat settings, ReFrames : 8 framesCodec ID : V_MPEG4/ISO/AVCDuration : 49mn 1sBit rate : 4 000 KbpsWidth : 1 280 pixelsHeight : 720 pixelsDisplay aspect ratio : 16:9Frame rate mode : ConstantFrame rate : 25.000 fpsColor space : YUVChroma subsampling : 4:2:0Bit depth : 8 bitsScan type : ProgressiveBits/(Pixel*Frame) : 0.174Stream size : 1.34 GiB (93%)Writing library : x264 core 146 r2538 121396cEncoding settings : cabac=1 / ref=8 / deblock=1:-3:-3 / analyse=0x3:0x133 / me=umh / subme=9 / psy=1 / psy_rd=1.00:0.00 / mixed_ref=1 / me_range=32 / chroma_me=1 / trellis=2 / 8x8dct=1 / cqm=0 / deadzone=21,11 / fast_pskip=1 / chroma_qp_offset=-2 / threads=12 / lookahead_threads=2 / sliced_threads=0 / nr=0 / decimate=1 / interlaced=0 / bluray_compat=0 / constrained_intra=0 / bframes=8 / b_pyramid=2 / b_adapt=2 / b_bias=0 / direct=3 / weightb=1 / open_gop=0 / weightp=2 / keyint=250 / keyint_min=25 / scenecut=40 / intra_refresh=0 / rc_lookahead=50 / rc=2pass / mbtree=1 / bitrate=4000 / ratetol=1.0 / qcomp=0.60 / qpmin=0 / qpmax=69 / qpstep=4 / cplxblur=20.0 / qblur=0.5 / vbv_maxrate=62500 / vbv_bufsize=78125 / nal_hrd=none / filler=0 / ip_ratio=1.40 / aq=1:1.00Default : YesForced : No
AudioID : 2Format : AC-3Format/Info : Audio Coding 3Mode extension : CM (complete main)Format settings, Endianness : BigCodec ID : A_AC3Duration : 49mn 1sBit rate mode : ConstantBit rate : 192 KbpsChannel(s) : 2 channelsChannel positions : Front: L RSampling rate : 48.0 KHzBit depth : 16 bitsCompression mode : LossyStream size : 67.3 MiB (5%)Language : RussianDefault : YesForced : No

x264 log

raw [info]: 1280x720p 1:1 @ 25/1 fps (cfr)x264 [info]: using SAR=1/1x264 [info]: using cpu capabilities: MMX2 SSE2Fast SSSE3 SSE4.2 AVXx264 [info]: profile High, level 4.1x264 [info]: frame I:531 Avg QP:13.85 size:118669x264 [info]: frame P:20353 Avg QP:16.95 size: 40047x264 [info]: frame B:52657 Avg QP:19.23 size: 11273x264 [info]: consecutive B-frames: 3.4% 6.6% 6.9% 64.8% 7.6% 7.5% 1.1% 1.9% 0.1%x264 [info]: mb I I16..4: 9.2% 72.8% 18.0%x264 [info]: mb P I16..4: 2.9% 10.8% 1.2% P16..4: 42.9% 20.6% 12.7% 0.6% 0.2% skip: 8.1%x264 [info]: mb B I16..4: 0.3% 1.2% 0.2% B16..8: 36.1% 8.1% 1.8% direct: 7.8% skip:44.5% L0:40.4% L1:44.6% BI:15.1%x264 [info]: 8x8 transform intra:72.3% inter:61.4%x264 [info]: direct mvs spatial:96.0% temporal:4.0%x264 [info]: coded y,uvDC,uvAC intra: 70.3% 74.7% 53.1% inter: 22.1% 29.0% 5.6%x264 [info]: i16 v,h,dc,p: 28% 16% 6% 50%x264 [info]: i8 v,h,dc,ddl,ddr,vr,hd,vl,hu: 14% 12% 10% 7% 11% 11% 12% 11% 13%x264 [info]: i4 v,h,dc,ddl,ddr,vr,hd,vl,hu: 16% 12% 7% 8% 12% 12% 11% 10% 12%x264 [info]: i8c dc,h,v,p: 46% 22% 17% 15%x264 [info]: Weighted P-Frames: Y:8.4% UV:4.5%x264 [info]: ref P L0: 52.1% 12.7% 16.3% 5.6% 4.6% 3.3% 3.0% 2.0% 0.4% 0.0%x264 [info]: ref B L0: 80.1% 10.5% 4.2% 2.1% 1.6% 1.0% 0.5%x264 [info]: ref B L1: 95.5% 4.5%x264 [info]: kb/s:4002.33encoded 73541 frames, 14.29 fps, 4002.33 kb/s

Скриншоты

-
[Профиль] [ЛС]
Кто просматривает тему:

Показать сообщения:    

Текущее время: Сегодня 17:41

Часовой пояс: GMT



Вы не можете начинать темы
Вы не можете отвечать на сообщения
Вы не можете редактировать свои сообщения
Вы не можете удалять свои сообщения
Вы не можете голосовать в опросах
Вы не можете прикреплять файлы к сообщениям
Вы не можете скачивать файлы