Вдали от волнений / Les tremblements lointains (Манюэль Путт / Manuel Poutte) [2008, Бельгия, Франция, драма, DVB-AVC] MVO (Kino Polska)

 
Автор Сообщение

TorrentFilm ®

Пол:

Стаж: 2 года

Сообщений: 7741



Награды: Нет

Торрент-статистика

Создавать темы 02-Авг-2015 00:10

[Цитировать]

Вдали от волнений
Les tremblements lointains- Страна: Бельгия, Франция
Жанр: драма
Год выпуска: 2008
Продолжительность: 01:42:09Перевод: Профессиональный (многоголосый закадровый) по заказу Kino Polska на производственно-технической базе Студии "Акцент"
Cубтитры: нет
Режиссер: Манюэль Путт / Manuel Poutte
В ролях: Амели Дор / Amélie Daure (Marie Favret), Папа Малик Ндиайе / Papa Malik Ndiaye (Bandiougou), Даниэль Дюваль / Daniel Duval (Jean Favret), Жан-Франсуа Стевенен / Jean-François Stévenin (Boris Vanara)
Описание: Встреча двух культур в глубине Западной Африки на стыке поколений, рациональности и предубеждений. 20-летний сенегалец, в надежде не эмиграцию, оставил свое село и прибыл в городок Фундиунь, где находится посольство страны и "двери в Европу", в ожидании вызова от француженки, как-то побывавшей в Сенегале и проведшей с ним "ночи любви". Пока же он вынужден работать проводником, гидом и лодочником.
Доп. информация: Filmbox Arthouse IPTV
Номинация на "Хрустальный глобус" за лучший фильм Karlovy Vary International Film Festival 2008.

Качество видео: DVB-AVC
Формат видео: MKV
Видео: AVC (H.264), 720x576@1024x576 (16:9), 25 fps, ~705 kbps avg, 0.073 bit/pixel
Аудио: MPEG Audio 2, 2 ch, 48 kHz, ~128.00 kbps avg

MediaInfo

ОбщееУникальный идентификатор : 215187589061392608332609581088883491735 (0xA1E39F44C9EBEF7494FF26C82A624397)Полное имя : F:\My Torrents 3\[apreder]Les_tremblements_lointains(2008)DVB.mkvФормат : MatroskaВерсия формата : Version 2Размер файла : 621 МбайтПродолжительность : 1 ч. 42 м.Общий поток : 850 Кбит/секДата кодирования : UTC 2015-08-01 12:05:37Программа кодирования : mkvmerge v8.2.0 ('World of Adventure') 64bitБиблиотека кодирования : libebml v1.3.1 + libmatroska v1.4.2Attachements : cover.jpg / cover_small.jpg
ВидеоИдентификатор : 2Формат : AVCФормат/Информация : Advanced Video CodecПрофиль формата : Main@L3Параметр CABAC формата : ДаПараметр ReFrames формата : 3 кадраИдентификатор кодека : V_MPEG4/ISO/AVCПродолжительность : 1 ч. 42 м.Битрейт : 705 Кбит/секШирина : 720 пикселейВысота : 576 пикселейСоотношение сторон : 16:9Соотношение сторон в оригинале : 16:9Режим частоты кадров : ПостоянныйЧастота кадров : 23,438 кадра/секЧастота кадров в оригинале : 25,000 кадров/секСтандарт вещания : ComponentЦветовое пространство : YUVСубдискретизация насыщенности : 4:2:0Битовая глубина : 8 битТип развёртки : ЧересстрочнаяПорядок развёртки : Верхнее поле первоеБит/(Пиксели*Кадры) : 0.073Размер потока : 515 Мбайт (83%)Default : ДаForced : Нетcolour_range : LimitedОсновные цвета : BT.601 PALХарактеристики трансфера : BT.470 System B, BT.470 System GКоэффициенты матрицы : BT.601
АудиоИдентификатор : 1Формат : MPEG AudioВерсия формата : Version 1Профиль формата : Layer 2Идентификатор кодека : A_MPEG/L2Идентификатор кодека/Подсказка : MP2Продолжительность : 1 ч. 42 м.Вид битрейта : ПостоянныйБитрейт : 128 Кбит/секКаналы : 2 каналаЧастота : 48,0 КГцМетод сжатия : С потерямиЗадержка видео : -17 мс.Размер потока : 93,5 Мбайт (15%)Язык : RussianDefault : ДаForced : Нет

Скриншот c названием фильма

Скриншоты


Резервные скриншоты


-[2'514]
[Профиль] [ЛС]

Создавать темы 06-Авг-2015 22:23 (спустя 4 дня)

Топик был перенесен из форума Фильмы до 2014 года в форум Фильмы до 2012 года
sergej644
 

Создавать темы 12-Июн-2016 08:52 (спустя 10 месяцев 10 дней)

Топик был перенесен из форума Фильмы 2011 года в форум Фильмы 2006-2008 года
Russian Mafia
 
Показать сообщения:    

Текущее время: Сегодня 20:05

Часовой пояс: GMT



Вы не можете начинать темы
Вы не можете отвечать на сообщения
Вы не можете редактировать свои сообщения
Вы не можете удалять свои сообщения
Вы не можете голосовать в опросах
Вы не можете прикреплять файлы к сообщениям
Вы не можете скачивать файлы