ВВС. Вивисекция. Как устроены насекомые / ВВС: Insect Dissection: How Insects Work (Нэйтан Бадд / Nathan Budd) [2012, Документальный, энтомология, исследование, SATRip]

 
Автор Сообщение

reversefile ®

Пол:

Стаж: 4 года 5 месяцев

Сообщений: 842

Откуда: ReverseFile.org



Награды: Нет

Торрент-статистика

Создавать темы 11-Авг-2014 06:20

[Цитировать]

ВВС. Вивисекция. Как устроены насекомые / ВВС: Insect Dissection: How Insects Work
Дата/Год выпуска: 2012
Страна: Великобритания, BBC, Science Channel
Жанр: Документальный, энтомология, исследование
Продолжительность: 00:49:42
Перевод: Профессиональный (дублированный)
Русские субтитры: нет
Режиссер: Нэйтан Бадд / Nathan Budd
Описание: Насекомые. Они жужжат, кусаются и досаждают нам. На каждого из нас приходится их 200 миллионов. Они завоевали практически все уголки нашей планеты. В чем же секрет их успеха? Брендон Данфи и Джеймс Логан - ученые энтомологи - считают, что для того, чтобы понять насекомых, их нужно рассмотреть изнутри. В своей анатомической лаборатории они разбирают насекомых на маленькие кусочки, чтобы изучить этот потаенный мир. Их органы столь причудливы, что кажется будто они принадлежат инопланетянину. Вивисекция насекомых - занятие временами сложное, а временами и страшное.
Семпл: http://multi-up.com/959358
качество: SATRip
формат: AVI
Видео: Xvid, 720x400, 25fps, 1 750 Kbps
Аудио: AC3, 48000Hz, stereo, 192kbps
Постер: extrimus
Оф. сайт: http://www.bbc.co.uk/programmes/p00zst23

MediaInfo

O:\Ripy_____________\BBC. Вивисекция. Как устроены насекомые.2012.XviD.SATRip.avi General Complete name : O:\Ripy_____________\BBC. Вивисекция. Как устроены насекомые.2012.XviD.SATRip.avi Format : AVI Format/Info : Audio Video Interleave File size : 694 MiB Duration : 49mn 42s Overall bit rate : 1 951 Kbps Movie name : ВВС: Insect Dissection: How Insects Work Director : SATRip by Thunder Writing application : VirtualDubMod 1.5.10.3 | www.virtualdub-fr.org || (build 2550/release) Original source form/Name : Documentary Video #0 ID : 0 Format : MPEG-4 Visual Format profile : Advanced Simple@L5 Format settings, BVOP : Yes Format settings, QPel : No Format settings, GMC : No warppoints Format settings, Matrix : Default (H.263) Codec ID : XVID Codec ID/Hint : XviD Duration : 49mn 42s Bit rate : 1 750 Kbps Width : 720 pixels Height : 400 pixels Display aspect ratio : 16:9 Frame rate : 25.000 fps Color space : YUV Chroma subsampling : 4:2:0 Bit depth : 8 bits Scan type : Progressive Bits/(Pixel*Frame) : 0.243 Stream size : 622 MiB (90%) Writing library : XviD 1.2.1 (UTC 2008-12-04) Audio #1 ID : 1 Format : AC-3 Format/Info : Audio Coding 3 Mode extension : CM (complete main) Codec ID : 2000 Duration : 49mn 42s Bit rate mode : Constant Bit rate : 192 Kbps Channel(s) : 2 channels Channel positions : Front: L R Sampling rate : 48.0 KHz Bit depth : 16 bits Stream size : 68.3 MiB (10%) Alignment : Split accross interleaves Interleave, duration : 40 ms (1.00 video frame) Interleave, preload duration : 500 ms

Скриншоты


[Профиль] [ЛС]
Кто просматривает тему:

Показать сообщения:    

Текущее время: Сегодня 18:29

Часовой пояс: GMT



Вы не можете начинать темы
Вы не можете отвечать на сообщения
Вы не можете редактировать свои сообщения
Вы не можете удалять свои сообщения
Вы не можете голосовать в опросах
Вы не можете прикреплять файлы к сообщениям
Вы не можете скачивать файлы