Ваша ненависть / The Hate U Give (2018) BDRemux 1080р | HDrezka Studio

 
Author Message

DOMINION ®

Gender:

Longevity: 9 months 26 days

Posts: 1096



: 6 ()

Top Releaser 3 (1) За внесенный вклад в развитие сайта (1) Друг (1)
Торрент-статистика

Post 03-Feb-2019 00:40

[Quote]

Информация о фильме
Название: Ваша ненависть
Оригинальное название: The Hate U Give
Год выхода: 2018
Жанр: криминал, драма
Режиссер: Джордж Тиллман мл.
В ролях: Амандла Стенберг, Реджина Холл, Расселл Хорнсби, Энтони Маки, Исса Рэй, Коммон, Элджи Смит, Сабрина Карпентер, Кей Джей Апа, Доминик Фишбэк и др.
Описание: Девушка-подросток Старр мечется между двумя мирами - своим домом в неспокойном бедном районе и благополучной школой, где она учится вместе с белыми детьми. Положение Старр осложняется, когда она становится единственной свидетельницей того, как полицейский выстрелил в её безоружного друга, подозреваемого в наркоторговле.

Страна: США
Продолжительность: 02:13:05
Перевод: Профессиональный (многоголосый закадровый) HDrezka Studio
Субтитры: английские
Оригинальная аудиодорожка: английский
Файл
Качество: BDRemux 1080р
Видео: MPEG-4 AVC, 1080p, 1920:1080 (16:9), 26712 kbps, 23.976 fps
Аудио 1: АС3, 2 ch, 48 kHz, 192 kbps HDrezka Studio
Аудио 2: DTS-HD MA, 8 ch, 48 kHz, 4545 kbps, 24-bit (DTS Core 6 ch, 48 kHz, 1509 kbps) English

Скриншоты

MediaInfo

General
Unique ID : 54816414323963392136146309099931663617 (0x293D41E397D89960A8981E9895F57D01)
Complete name : The.Hate.U.Give.2018.REMUX.mkv
Format : Matroska
Format version : Version 4 / Version 2
File size : 29.2 GiB
Duration : 2 h 13 min
Overall bit rate mode : Variable
Overall bit rate : 31.5 Mb/s
Movie name : The.Hate.U.Give.2018.REMUX.BluRay.1080p.AVC.DTS-HD.MA.7.1-iFT
Encoded date : UTC 2019-02-01 06:41:26
Writing application : mkvmerge v20.0.0 ('I Am The Sun') 64-bit
Writing library : libebml v1.3.5 + libmatroska v1.4.8
Video
ID : 1
Format : AVC
Format/Info : Advanced Video Codec
Format profile : High@L4.1
Format settings : CABAC / 2 Ref Frames
Format settings, CABAC : Yes
Format settings, RefFrames : 2 frames
Codec ID : V_MPEG4/ISO/AVC
Duration : 2 h 13 min
Bit rate mode : Variable
Bit rate : 26.7 Mb/s
Width : 1 920 pixels
Height : 1 080 pixels
Display aspect ratio : 16:9
Frame rate mode : Constant
Frame rate : 23.976 (24000/1001) FPS
Color space : YUV
Chroma subsampling : 4:2:0
Bit depth : 8 bits
Scan type : Progressive
Bits/(Pixel*Frame) : 0.537
Stream size : 24.8 GiB (85%)
Language : English
Default : Yes
Forced : No
Audio #1
ID : 2
Format : AC-3
Format/Info : Audio Coding 3
Codec ID : A_AC3
Duration : 2 h 13 min
Bit rate mode : Constant
Bit rate : 192 kb/s
Channel(s) : 2 channels
Channel positions : Front: L R
Sampling rate : 48.0 kHz
Frame rate : 31.250 FPS (1536 SPF)
Bit depth : 16 bits
Compression mode : Lossy
Stream size : 183 MiB (1%)
Language : Russian
Service kind : Complete Main
Default : Yes
Forced : No
Audio #2
ID : 3
Format : DTS
Format/Info : Digital Theater Systems
Format profile : MA / Core
Codec ID : A_DTS
Duration : 2 h 13 min
Bit rate mode : Variable / Constant
Bit rate : 4 545 kb/s / 1 509 kb/s
Channel(s) : 8 channels / 6 channels
Channel positions : Front: L C R, Side: L R, Back: L R, LFE / Front: L C R, Side: L R, LFE
Sampling rate : 48.0 kHz
Frame rate : 93.750 FPS (512 SPF)
Bit depth : 24 bits
Compression mode : Lossless / Lossy
Stream size : 4.22 GiB (14%)
Language : English
Default : No
Forced : No
Text
ID : 4
Format : UTF-8
Codec ID : S_TEXT/UTF8
Codec ID/Info : UTF-8 Plain Text
Duration : 2 h 12 min
Bit rate : 74 b/s
Count of elements : 2360
Stream size : 71.9 KiB (0%)
Language : English
Default : No
Forced : No
Menu
00:00:00.000 : :Capítulo 01
00:03:55.777 : :Capítulo 02
00:08:18.081 : :Capítulo 03
00:13:14.252 : :Capítulo 04
00:19:32.129 : :Capítulo 05
00:24:48.320 : :Capítulo 06
00:29:34.314 : :Capítulo 07
00:34:54.217 : :Capítulo 08
00:40:09.532 : :Capítulo 09
00:45:05.411 : :Capítulo 10
00:50:09.215 : :Capítulo 11
00:58:27.587 : :Capítulo 12
01:03:58.376 : :Capítulo 13
01:10:00.988 : :Capítulo 14
01:14:51.278 : :Capítulo 15
01:19:50.786 : :Capítulo 16
01:27:09.599 : :Capítulo 17
01:32:11.693 : :Capítulo 18
01:37:36.225 : :Capítulo 19
01:43:59.066 : :Capítulo 20
01:49:39.156 : :Capítulo 21
01:56:20.432 : :Capítulo 22
01:58:00.156 : :Capítulo 23
02:03:50.965 : :Capítulo 24
[Profile] [PM]
Кто просматривает тему:

Display posts from previous:    

The time now is: Today 08:49

All times are GMT



You cannot post new topics in this forum
You cannot reply to topics in this forum
You cannot edit your posts in this forum
You cannot delete your posts in this forum
You cannot vote in polls in this forum
You cannot attach files in this forum
You cannot download files in this forum