Ватиканские записи / The Vatican Tapes (2015) BDRip | Чистый звук

 
Автор Сообщение

BOSS ®

Пол:

Стаж: 2 года 1 месяц

Сообщений: 3729

Откуда: ODESSA



Награды: 20 (Подробнее)

Top Keeper 4 (Количество: 1) Top Keeper 1 (Количество: 1) Top Keeper 3 (Количество: 1)
Торрент-статистика

Создавать темы 22-Окт-2015 07:44

[Цитировать]

Страна: США
Жанр: ужасы, триллер
Год выпуска: 2015
Продолжительность: 01:30:52
Перевод: Профессиональный (полное дублирование - чистый звук)
Режиссер: Марк Невелдайн / Mark Neveldine
В ролях: Кэтлин Робертсон, Майкл Пенья, Элисон Ломан, Джимон Хонсу, Дугрей Скотт, Майкл Паре, Джон Патрик Амедори, Оливия Тейлор Дадли, Темина Санни, Дэниэл Бернхард
Описание: Анжела Холмс жила обычной жизнью, пока внезапно не начала оказывать разрушительное воздействие на окружающих, причиняя людям серьезные, иногда смертельные травмы. Местный священник, отец Лозано, уверен в ее одержимости. Приглашенные для проведения сеанса экзорцизма кардиналы из Ватикана сталкиваются с древней сатанинской силой, большей, чем они могли себе представить.

MPAA: PG-13 - Детям до 13 лет просмотр не желателен
Качество: BDRip Исходник BDRemux
Контейнер: AVI
Видео: XviD, 640x360 (16:9), 1008 kbps, 23,976 fps, 0,183 bpp
Аудио: MP3 / 2.0 / 48 kHz / 128 kbps /-

Скриншоты

Media Info

General
Complete name : E:filmThe.Vatican.Tapes.2015.BDRip745.avi
Format : AVI
Format/Info : Audio Video Interleave
File size : 745 MiB
Duration : 1h 30mn
Overall bit rate : 1 146 Kbps
Writing application : VirtualDubMod 1.5.10.3 | www.virtualdub-fr.org || (build 2550/release)
Writing library : VirtualDubMod build 2550/release
Video
ID : 0
Format : MPEG-4 Visual
Format profile : Advanced Simple@L5
Format settings, BVOP : 1
Format settings, QPel : No
Format settings, GMC : No warppoints
Format settings, Matrix : Custom
Codec ID : XVID
Codec ID/Hint : XviD
Duration : 1h 30mn
Bit rate : 1 009 Kbps
Width : 640 pixels
Height : 360 pixels
Display aspect ratio : 16:9
Frame rate : 23.976 fps
Color space : YUV
Chroma subsampling : 4:2:0
Bit depth : 8 bits
Scan type : Progressive
Compression mode : Lossy
Bits/(Pixel*Frame) : 0.183
Stream size : 656 MiB (88%)
Writing library : XviD 73
Audio
ID : 1
Format : MPEG Audio
Format version : Version 1
Format profile : Layer 3
Mode : Joint stereo
Codec ID : 55
Codec ID/Hint : MP3
Duration : 1h 30mn
Bit rate mode : Constant
Bit rate : 128 Kbps
Channel(s) : 2 channels
Sampling rate : 48.0 KHz
Compression mode : Lossy
Stream size : 83.2 MiB (11%)
Alignment : Aligned on interleaves
Interleave, duration : 42 ms (1.00 video frame)
Interleave, preload duration : 504 ms
Writing library : LAME3.99r
Encoding settings : -m j -V 4 -q 2 -lowpass 17 -b 128
[Профиль] [ЛС]
Кто просматривает тему:

Форум Тема Автор Размер
Viasat History Viasat History: Ватикан и Третий Рейх / The Vatican and the Third Reich (Rufo Pajares) [2014 г., Документальный, история, SATRip] skorpionN 750 MB
Фильмы (HD DVD, Blu-ray и BDRemux) Ватиканские записи / The Vatican Tapes (2015) BDRemux 1080p | iTunes, L1 достали все 28.4 GB
Фильмы (HD Rips | 720p, 1080p) Ватиканские записи / The Vatican Tapes (2015) BDRip 1080p | Чистый звук Russian Mafia 7.01 GB
Фильмы 2015 года Ватиканские записи / The Vatican Tapes (2015) BDRip | Чистый звук Russian Mafia 1.46 GB
Фильмы 2015 года Ватиканские записи / The Vatican Tapes (2015) HDRip-AVC | Чистый звук достали все 1.56 GB
Фильмы 2015 года Ватиканские записи / The Vatican Tapes (Марк Невелдайн / Mark Neveldine) [2015, США, ужасы, триллер, HDRip-AVC] VO + Eng sub TorrentFilm 1.44 GB
Фильмы 2015 года Ватиканские записи / The Vatican Tapes (Марк Невелдайн) [2015, ужасы, триллер] HDRip | Чистый звук BOSS 1.37 GB
Культура и искусство Музеи Ватикана. Между небом и землей / Vatikanische Museen - Zwischen himmel und erde (The Vatican Museums) (Marco Pianigiani) [2013 г., Документальный, история, искусство, BDRip-AVC 720p] skorpionN 2.39 GB
Показать сообщения:    

Текущее время: Сегодня 20:59

Часовой пояс: GMT



Вы не можете начинать темы
Вы не можете отвечать на сообщения
Вы не можете редактировать свои сообщения
Вы не можете удалять свои сообщения
Вы не можете голосовать в опросах
Вы не можете прикреплять файлы к сообщениям
Вы не можете скачивать файлы