Ватиканские записи / The Vatican Tapes (2015) BDRip | Чистый звук

 
Автор Сообщение

Russian Mafia ®

Пол:

Стаж: 1 год 8 месяцев

Сообщений: 4246



Награды: 10 (Подробнее)

Top Releaser 5 (Количество: 1) Mega Seeder 5 (Количество: 1) Mega Seeder 4 (Количество: 1)
Торрент-статистика

Создавать темы 21-Окт-2015 09:53

[Цитировать]

Страна: США
Жанр: ужасы, триллер
Год выпуска: 2015
Продолжительность: 01:30:52
Перевод: Профессиональный (полное дублирование - чистый звук)
Режиссер: Марк Невелдайн / Mark Neveldine
В ролях: Кэтлин Робертсон, Майкл Пенья, Элисон Ломан, Джимон Хонсу, Дугрей Скотт, Майкл Паре, Джон Патрик Амедори, Оливия Тейлор Дадли, Темина Санни, Дэниэл Бернхард
Описание: Анжела Холмс жила обычной жизнью, пока внезапно не начала оказывать разрушительное воздействие на окружающих, причиняя людям серьезные, иногда смертельные травмы. Местный священник, отец Лозано, уверен в ее одержимости. Приглашенные для проведения сеанса экзорцизма кардиналы из Ватикана сталкиваются с древней сатанинской силой, большей, чем они могли себе представить.

MPAA: PG-13 - Детям до 13 лет просмотр не желателен
Качество: BDRip
Контейнер: AVI
Видео: XviD, 704x400 (16:9), 2098 kbps, 23,976 fps, 0,311 bpp
Аудио: AC3 / 2.0 / 48 kHz / 192 kbps / 16 bit-

Скриншоты

Media Info

General
Complete name : E:filmThe.Vatican.Tapes.2015.BDRip.avi
Format : AVI
Format/Info : Audio Video Interleave
File size : 1.46 GiB
Duration : 1h 30mn
Overall bit rate : 2 300 Kbps
Writing application : VirtualDubMod 1.5.10.3 | www.virtualdub-fr.org || (build 2550/release)
Writing library : VirtualDubMod build 2550/release
Video
ID : 0
Format : MPEG-4 Visual
Format profile : Advanced Simple@L5
Format settings, BVOP : 1
Format settings, QPel : No
Format settings, GMC : No warppoints
Format settings, Matrix : Custom
Codec ID : XVID
Codec ID/Hint : XviD
Duration : 1h 30mn
Bit rate : 2 098 Kbps
Width : 704 pixels
Height : 400 pixels
Display aspect ratio : 16:9
Frame rate : 23.976 fps
Color space : YUV
Chroma subsampling : 4:2:0
Bit depth : 8 bits
Scan type : Progressive
Compression mode : Lossy
Bits/(Pixel*Frame) : 0.311
Stream size : 1.33 GiB (91%)
Writing library : XviD 73
Audio
ID : 1
Format : AC-3
Format/Info : Audio Coding 3
Mode extension : CM (complete main)
Format settings, Endianness : Big
Codec ID : 2000
Duration : 1h 30mn
Bit rate mode : Constant
Bit rate : 192 Kbps
Channel(s) : 2 channels
Channel positions : Front: L R
Sampling rate : 48.0 KHz
Bit depth : 16 bits
Compression mode : Lossy
Stream size : 125 MiB (8%)
Alignment : Split accross interleaves
Interleave, duration : 42 ms (1.00 video frame)
Interleave, preload duration : 500 ms
[Профиль] [ЛС]
Кто просматривает тему:

Форум Тема Автор Размер
Viasat History Viasat History: Ватикан и Третий Рейх / The Vatican and the Third Reich (Rufo Pajares) [2014 г., Документальный, история, SATRip] skorpionN 750 MB
Фильмы (HD DVD, Blu-ray и BDRemux) Ватиканские записи / The Vatican Tapes (2015) BDRemux 1080p | iTunes, L1 достали все 28.4 GB
Фильмы (HD Rips | 720p, 1080p) Ватиканские записи / The Vatican Tapes (2015) BDRip 1080p | Чистый звук Russian Mafia 7.01 GB
Фильмы 2015 года Ватиканские записи / The Vatican Tapes (2015) BDRip | Чистый звук BOSS 745 MB
Фильмы 2015 года Ватиканские записи / The Vatican Tapes (2015) HDRip-AVC | Чистый звук достали все 1.56 GB
Фильмы 2015 года Ватиканские записи / The Vatican Tapes (Марк Невелдайн / Mark Neveldine) [2015, США, ужасы, триллер, HDRip-AVC] VO + Eng sub TorrentFilm 1.44 GB
Фильмы 2015 года Ватиканские записи / The Vatican Tapes (Марк Невелдайн) [2015, ужасы, триллер] HDRip | Чистый звук BOSS 1.37 GB
Культура и искусство Музеи Ватикана. Между небом и землей / Vatikanische Museen - Zwischen himmel und erde (The Vatican Museums) (Marco Pianigiani) [2013 г., Документальный, история, искусство, BDRip-AVC 720p] skorpionN 2.39 GB
Показать сообщения:    

Текущее время: Сегодня 22:37

Часовой пояс: GMT



Вы не можете начинать темы
Вы не можете отвечать на сообщения
Вы не можете редактировать свои сообщения
Вы не можете удалять свои сообщения
Вы не можете голосовать в опросах
Вы не можете прикреплять файлы к сообщениям
Вы не можете скачивать файлы