Ватиканские записи / The Vatican Tapes (2015) BDRip 1080p | Чистый звук

 
Автор Сообщение

Russian Mafia ®

Пол:

Стаж: 1 год 8 месяцев

Сообщений: 4257



Награды: 10 (Подробнее)

За внесенный вклад в развитие сайта (Количество: 1) Top Releaser 4 (Количество: 1) Top Releaser 2 (Количество: 1)
Торрент-статистика

Создавать темы 20-Окт-2015 13:05

[Цитировать]

Страна: США
Жанр: ужасы, триллер
Год выпуска: 2015
Продолжительность: 01:30:52
Перевод: Профессиональный (полное дублирование - чистый звук) + Оригинал
Субтитры: английские,
Режиссер: Марк Невелдайн / Mark Neveldine
В ролях:
Описание: Анжела Холмс жила обычной жизнью, пока внезапно не начала оказывать разрушительное воздействие на окружающих, причиняя людям серьезные, иногда смертельные травмы. Местный священник, отец Лозано, уверен в ее одержимости. Приглашенные для проведения сеанса экзорцизма кардиналы из Ватикана сталкиваются с древней сатанинской силой, большей, чем они могли себе представить.


MPAA: PG-13 - Детям до 13 лет просмотр не желателен
Качество: BDRip 1080p
Контейнер: MKV
Видео: AVC, 1920x1080 (16:9), 9151 kbps, 23,976 fps, 0,184 bpp
Аудио №1: русский / AC3 / 2.0 / 48 kHz / 192 kbps / 16 bit |Чистый звук|
Аудио №2: английский / DTS / 5.1 / 48 kHz / 1510 kbps / 24 bit
Аудио №3: английский / AC3 / 2.0 / 48 kHz / 224 kbps / 16 bit
Навигация по главам: есть

Скриншоты

Media Info

General
Unique ID : 249310860688093873014354437372176752393 (0xBB8F8673E6C4095E9DF1161ED3CFDF09)
Complete name : F:The.Vatican.Tapes.2015.BDRemux.1080p.NovaLanThe.Vatican.Tapes.2015.x264.BDRip.1080p.mkv
Format : Matroska
Format version : Version 4 / Version 2
File size : 7.01 GiB
Duration : 1h 30mn
Overall bit rate : 11.0 Mbps
Movie name : The Vatican Tapes 2015 - NovaLan
Encoded date : UTC 2015-10-20 08:08:29
Writing application : mkvmerge v8.3.0 ('Over the Horizon') 64bit
Writing library : libebml v1.3.1 + libmatroska v1.4.2
DURATION : 01:30:52.352000000
NUMBER_OF_FRAMES : 170386
NUMBER_OF_BYTES : 130856448
_STATISTICS_WRITING_APP : mkvmerge v8.3.0 ('Over the Horizon') 64bit
_STATISTICS_WRITING_DATE_UTC : 2015-10-20 08:08:29
_STATISTICS_TAGS : BPS DURATION NUMBER_OF_FRAMES NUMBER_OF_BYTES
Video
ID : 1
Format : AVC
Format/Info : Advanced Video Codec
Format profile : High@L4.1
Format settings, CABAC : Yes
Format settings, ReFrames : 4 frames
Codec ID : V_MPEG4/ISO/AVC
Duration : 1h 30mn
Bit rate : 9 151 Kbps
Width : 1 920 pixels
Height : 1 080 pixels
Display aspect ratio : 16:9
Frame rate mode : Constant
Frame rate : 23.976 fps
Color space : YUV
Chroma subsampling : 4:2:0
Bit depth : 8 bits
Scan type : Progressive
Bits/(Pixel*Frame) : 0.184
Stream size : 5.65 GiB (81%)
Title : Sergei7721
Writing library : x264 core 146 r2538 121396c
Encoding settings : cabac=1 / ref=4 / deblock=1:-1:-1 / analyse=0x3:0x113 / me=umh / subme=11 / psy=1 / psy_rd=1.00:0.20 / mixed_ref=1 / me_range=24 / chroma_me=1 / trellis=2 / 8x8dct=1 / cqm=0 / deadzone=21,11 / fast_pskip=0 / chroma_qp_offset=-3 / threads=12 / lookahead_threads=1 / sliced_threads=0 / nr=0 / decimate=0 / interlaced=0 / bluray_compat=0 / constrained_intra=0 / bframes=6 / b_pyramid=2 / b_adapt=2 / b_bias=0 / direct=3 / weightb=1 / open_gop=0 / weightp=2 / keyint=240 / keyint_min=23 / scenecut=40 / intra_refresh=0 / rc_lookahead=40 / rc=2pass / mbtree=0 / bitrate=9151 / ratetol=1.0 / qcomp=0.60 / qpmin=0 / qpmax=69 / qpstep=4 / cplxblur=20.0 / qblur=0.5 / vbv_maxrate=50000 / vbv_bufsize=62500 / nal_hrd=none / filler=0 / ip_ratio=1.40 / pb_ratio=1.30 / aq=1:1.00
Default : Yes
Forced : No
DURATION : 01:30:52.280000000
NUMBER_OF_FRAMES : 130724
NUMBER_OF_BYTES : 6214811117
_STATISTICS_WRITING_APP : mkvmerge v8.3.0 ('Over the Horizon') 64bit
_STATISTICS_WRITING_DATE_UTC : 2015-10-20 08:08:29
_STATISTICS_TAGS : BPS DURATION NUMBER_OF_FRAMES NUMBER_OF_BYTES
Audio #1
ID : 2
Format : AC-3
Format/Info : Audio Coding 3
Mode extension : CM (complete main)
Format settings, Endianness : Big
Codec ID : A_AC3
Duration : 1h 30mn
Bit rate mode : Constant
Bit rate : 192 Kbps
Channel(s) : 2 channels
Channel positions : Front: L R
Sampling rate : 48.0 KHz
Bit depth : 16 bits
Compression mode : Lossy
Stream size : 125 MiB (2%)
Title : Чистый звук
Language : Russian
Default : Yes
Forced : No
Audio #2
ID : 3
Format : DTS
Format/Info : Digital Theater Systems
Mode : 16
Format settings, Endianness : Big
Codec ID : A_DTS
Duration : 1h 30mn
Bit rate mode : Constant
Bit rate : 1 509 Kbps
Channel(s) : 6 channels
Channel positions : Front: L C R, Side: L R, LFE
Sampling rate : 48.0 KHz
Bit depth : 24 bits
Compression mode : Lossy
Stream size : 981 MiB (14%)
Language : English
Default : No
Forced : No
Audio #3
ID : 4
Format : AC-3
Format/Info : Audio Coding 3
Format profile : Dolby Digital
Mode extension : CM (complete main)
Format settings, Endianness : Big
Codec ID : A_AC3
Duration : 1h 30mn
Bit rate mode : Constant
Bit rate : 224 Kbps
Channel(s) : 2 channels
Channel positions : Front: L R
Sampling rate : 48.0 KHz
Bit depth : 16 bits
Compression mode : Lossy
Stream size : 146 MiB (2%)
Language : English
Default : No
Forced : No
Text
ID : 5
Format : UTF-8
Codec ID : S_TEXT/UTF8
Codec ID/Info : UTF-8 Plain Text
Language : English
Default : No
Forced : No
Menu
00:00:00.000 : en:00:00:00.000
00:02:53.173 : en:00:02:53.173
00:11:38.072 : en:00:11:38.072
00:18:02.122 : en:00:18:02.122
00:23:52.347 : en:00:23:52.347
00:26:37.178 : en:00:26:37.178
00:32:26.986 : en:00:32:26.986
00:39:03.424 : en:00:39:03.424
00:44:56.276 : en:00:44:56.276
00:49:55.408 : en:00:49:55.408
00:53:09.686 : en:00:53:09.686
01:02:46.095 : en:01:02:46.095
01:07:46.312 : en:01:07:46.312
01:12:17.916 : en:01:12:17.916
01:15:41.286 : en:01:15:41.286
01:18:54.229 : en:01:18:54.229
[Профиль] [ЛС]
Кто просматривает тему:

Форум Тема Автор Размер
Viasat History Viasat History: Ватикан и Третий Рейх / The Vatican and the Third Reich (Rufo Pajares) [2014 г., Документальный, история, SATRip] skorpionN 750 MB
Фильмы (HD DVD, Blu-ray и BDRemux) Ватиканские записи / The Vatican Tapes (2015) BDRemux 1080p | iTunes, L1 достали все 28.4 GB
Фильмы 2015 года Ватиканские записи / The Vatican Tapes (2015) BDRip | Чистый звук Russian Mafia 1.46 GB
Фильмы 2015 года Ватиканские записи / The Vatican Tapes (2015) HDRip-AVC | Чистый звук достали все 1.56 GB
Фильмы 2015 года Ватиканские записи / The Vatican Tapes (Марк Невелдайн / Mark Neveldine) [2015, США, ужасы, триллер, HDRip-AVC] VO + Eng sub TorrentFilm 1.44 GB
Фильмы 2015 года Ватиканские записи / The Vatican Tapes (Марк Невелдайн) [2015, ужасы, триллер] HDRip | Чистый звук BOSS 1.37 GB
Культура и искусство Музеи Ватикана. Между небом и землей / Vatikanische Museen - Zwischen himmel und erde (The Vatican Museums) (Marco Pianigiani) [2013 г., Документальный, история, искусство, BDRip-AVC 720p] skorpionN 2.39 GB
Отечественные мультсериалы Сватики [S01] (2016) SATRip достали все 7.19 GB
Показать сообщения:    

Текущее время: Сегодня 17:39

Часовой пояс: GMT



Вы не можете начинать темы
Вы не можете отвечать на сообщения
Вы не можете редактировать свои сообщения
Вы не можете удалять свои сообщения
Вы не можете голосовать в опросах
Вы не можете прикреплять файлы к сообщениям
Вы не можете скачивать файлы