Вас ожидает гражданка Никанорова (Леонид Марягин) [1978, мелодрама, DVDRip-AVC]

 
Автор Сообщение

reversefile ®

Пол:

Стаж: 4 года 5 месяцев

Сообщений: 842

Откуда: ReverseFile.org



Награды: Нет

Торрент-статистика

Создавать темы 11-Авг-2014 06:21

[Цитировать]

Вас ожидает гражданка Никанорова- Жанр: мелодрама
Год выпуска: 1978
Продолжительность: 01:21:46-Режиссёр: Леонид Марягин-В ролях:
Наталья Гундарева, Борислав Брондуков, Евгений Киндинов, Иван Рыжов, Михаил Васьков, Геннадий Фролов, Лев Борисов, Наталья Гущина, Вера Новикова, Валентина Березуцкая, Людмила Полякова.
Описание:
Судьба не раз обманывала Катю Никанорову. В поисках своего идеала она прошла через потери и ошибки. Далеко не сразу смогла она разглядеть в сельском ветеринаре своего принца, но лишь он один сумел в буйной, увлекающейся Катерине увидеть женщину добрую и чуткую...-Сэмпл | Кинопоиск-Качество видео: DVDRip-AVC, благодарю apkin за оригинал фильма.
Формат видео: MKV
Видео: x264 (High@L4.1); 718@1021x432, Display aspect ratio 2.363:1, 25.000 fps, 2319 Kbps
Аудио: Оригинал: AC-3; 16 bit 48 Khz; Mono 224 Kbps; CBR

MediaInfo


-

x264 log

avs [info]: 718x432p 64:45 @ 25/1 fps (cfr)
x264 [info]: using SAR=64/45
x264 [info]: using cpu capabilities: MMX2 SSE2Fast SSSE3 SSE4.2
x264 [info]: profile High, level 4.1
x264 [info]: frame I:654 Avg QP:15.33 size: 56175
x264 [info]: frame P:28842 Avg QP:17.03 size: 24396
x264 [info]: frame B:93171 Avg QP:20.12 size: 7321
x264 [info]: consecutive B-frames: 1.8% 3.0% 9.9% 34.1% 14.9% 32.6% 2.8% 0.6% 0.1% 0.0% 0.0% 0.0% 0.0% 0.0% 0.0% 0.0% 0.0%
x264 [info]: mb I I16..4: 1.8% 90.5% 7.7%
x264 [info]: mb P I16..4: 0.4% 14.8% 0.4% P16..4: 27.9% 33.1% 18.8% 1.9% 0.2% skip: 2.5%
x264 [info]: mb B I16..4: 0.0% 1.8% 0.0% B16..8: 28.7% 20.1% 3.9% direct:10.9% skip:34.6% L0:34.1% L1:36.4% BI:29.6%
x264 [info]: 8x8 transform intra:94.9% inter:71.6%
x264 [info]: direct mvs spatial:98.7% temporal:1.3%
x264 [info]: coded y,uvDC,uvAC intra: 93.4% 71.7% 42.0% inter: 36.1% 23.8% 8.2%
x264 [info]: i16 v,h,dc,p: 49% 10% 10% 31%
x264 [info]: i8 v,h,dc,ddl,ddr,vr,hd,vl,hu: 20% 10% 20% 6% 8% 10% 7% 10% 11%
x264 [info]: i4 v,h,dc,ddl,ddr,vr,hd,vl,hu: 18% 8% 8% 8% 13% 15% 10% 10% 9%
x264 [info]: i8c dc,h,v,p: 32% 29% 29% 11%
x264 [info]: Weighted P-Frames: Y:29.9% UV:7.3%
x264 [info]: ref P L0: 40.6% 11.8% 14.1% 6.6% 5.2% 4.2% 3.5% 2.1% 1.9% 1.7% 1.6% 1.5% 1.4% 1.3% 1.3% 1.0%
x264 [info]: ref B L0: 85.1% 7.9% 2.1% 1.2% 0.8% 0.7% 0.5% 0.3% 0.3% 0.3% 0.2% 0.2% 0.2% 0.2% 0.1%
x264 [info]: ref B L1: 96.5% 3.5%
x264 [info]: kb/s:2319.21
x264 [total]: encoded 122667 frames, 15.28 fps, 2319.21 kb/s
-General
Unique ID : 201528239417200695000149050445617980564 (0x979CED55FCED49B2B11F0F84050C6494)
Complete name : Вас ожидает гражданка Никанорова.1978.mkv
Format : Matroska
Format version : Version 2
File size : 1.45 GiB
Duration : 1h 21mn
Overall bit rate : 2 545 Kbps
Movie name : «Вас ожидает гражданка Никанорова»
Encoded date : UTC 2014-06-17 18:30:25
Writing application : mkvmerge v5.8.0 ('No Sleep / Pillow') built on Sep 2 2012 15:37:04
Writing library : libebml v1.2.3 + libmatroska v1.3.0
Comment : DVDRip-AVC
Original date released : June 17th 2014
Encoded by : imgeorgest®
Video
ID : 1
Format : AVC
Format/Info : Advanced Video Codec
Format profile : High@L4.1
Format settings, CABAC : Yes
Format settings, ReFrames : 16 frames
Codec ID : V_MPEG4/ISO/AVC
Duration : 1h 21mn
Bit rate : 2 319 Kbps
Width : 718 pixels
Height : 432 pixels
Display aspect ratio : 2.35:1
Original display aspect ratio : 2.35:1
Frame rate mode : Constant
Frame rate : 25.000 fps
Color space : YUV
Chroma subsampling : 4:2:0
Bit depth : 8 bits
Scan type : Progressive
Bits/(Pixel*Frame) : 0.299
Stream size : 1.30 GiB (89%)
Title : Вас ожидает гражданка Никанорова
Writing library : x264 core 130 r2273 b3065e6
Encoding settings : cabac=1 / ref=16 / deblock=1:-2:-2 / analyse=0x3:0x133 / me=umh / subme=11 / psy=1 / psy_rd=0.95:0.00 / mixed_ref=1 / me_range=48 / chroma_me=1 / trellis=2 / 8x8dct=1 / cqm=0 / deadzone=21,11 / fast_pskip=0 / chroma_qp_offset=-2 / threads=12 / lookahead_threads=3 / sliced_threads=0 / nr=0 / decimate=0 / interlaced=0 / bluray_compat=0 / constrained_intra=0 / bframes=16 / b_pyramid=2 / b_adapt=2 / b_bias=0 / direct=3 / weightb=1 / open_gop=0 / weightp=2 / keyint=250 / keyint_min=25 / scenecut=40 / intra_refresh=0 / rc_lookahead=60 / rc=2pass / mbtree=1 / bitrate=2319 / ratetol=1.0 / qcomp=0.70 / qpmin=0 / qpmax=32 / qpstep=4 / cplxblur=20.0 / qblur=0.5 / vbv_maxrate=50000 / vbv_bufsize=62500 / nal_hrd=none / ip_ratio=1.35 / aq=1:0.70
Language : Russian
Default : Yes
Forced : No
Color primaries : BT.601 PAL
Transfer characteristics : BT.470 System B, BT.470 System G
Matrix coefficients : BT.601
Audio
ID : 2
Format : AC-3
Format/Info : Audio Coding 3
Mode extension : CM (complete main)
Format settings, Endianness : Big
Codec ID : A_AC3
Duration : 1h 21mn
Bit rate mode : Constant
Bit rate : 224 Kbps
Channel(s) : 1 channel
Channel positions : Front: C
Sampling rate : 48.0 KHz
Bit depth : 16 bits
Compression mode : Lossy
Stream size : 131 MiB (9%)
Title : Оригинал: AC-3; 16 bit 48 Khz; Mono 224 Kbps; CBR
Language : Russian
Default : Yes
Forced : No
[Профиль] [ЛС]

Создавать темы 06-Авг-2015 22:03 (спустя 11 месяцев 26 дней)

Топик был перенесен из форума Кино СССР в форум Кино СССР
sergej644
 
Кто просматривает тему:

Показать сообщения:    

Текущее время: Сегодня 11:57

Часовой пояс: GMT



Вы не можете начинать темы
Вы не можете отвечать на сообщения
Вы не можете редактировать свои сообщения
Вы не можете удалять свои сообщения
Вы не можете голосовать в опросах
Вы не можете прикреплять файлы к сообщениям
Вы не можете скачивать файлы