Вас вызывает Таймыр (1970) SATRip-AVC

 
Автор Сообщение

BOSS ®

Пол:

Стаж: 2 года 1 месяц

Сообщений: 3735

Откуда: ODESSA



Награды: 20 (Подробнее)

Top Seeder 3 (Количество: 1) Top Seeder 4 (Количество: 1) Top Keeper 3 (Количество: 1)
Торрент-статистика

Создавать темы 13-Сен-2015 04:52

[Цитировать]

Информация о фильме
Название: Вас вызывает Таймыр
Год выхода: 1970
Жанр: Комедия
Режиссер: Алексей Коренев
В ролях: Екатерина Васильева, Юрий Кузьменков, Евгений Стеблов, Евгений Весник, Павел Павленко, Елена Коренева, Инна Макарова, Светлана Старикова, Валентина Талызина, Зиновий Гердт, Николай Парфёнов, Лариса Барабанова, Т.Липина, Виктор Сысоев
О фильме: 1947 год. В номер столичной гостиницы - "Заря" один за другим вселяются: директор филармонии кирпичников, геолог Дюжиков (его-то время от времени и вызывает по телефону Таймыр), страдающий от любви юноша-геолог Андрей Гришко, дедушка-пчеловод Бабурин. Все они приехали в Москву всего на несколько дней. У каждого много неотложных дел. Немудрено, что даже при благожелательном друг к другу отношении, между жильцами то и дело возникают нелепые и даже комические ситуации.
Страна: СССР
Продолжительность: 01:25:19
Перевод: не требуется
Файл
Кодек: x264
Качество: SATRip-AVC
Видео: MPEG-4 AVC, 2050 Кбит/с, 698x572@746x572
Звук: AC3, 2 ch, 384 Кбит/с

Медиа-Инфо

Общее
Уникальный идентификатор : 250978279352226496376347192975307298552 (0xBCD0A88A3FEF9C719CD62B0FFC93D6F8)
Полное имя : R:МОИ РИПЫВас вызывает Таймыр_1970-SATRip-AVC.mkv
Формат : Matroska
Версия формата : Version 2
Размер файла : 1,45 Гбайт
Продолжительность : 1 ч. 25 м.
Общий поток : 2436 Кбит/сек
Дата кодирования : UTC 2015-04-04 23:22:33
Программа кодирования : mkvmerge v5.8.0 ('No Sleep / Pillow') built on Sep 2 2012 15:37:04
Библиотека кодирования : libebml v1.2.3 + libmatroska v1.3.0
Видео
Идентификатор : 1
Формат : AVC
Формат/Информация : Advanced Video Codec
Профиль формата : High@L4.1
Параметр CABAC формата : Да
Параметр ReFrames формата : 16 кадров
Идентификатор кодека : V_MPEG4/ISO/AVC
Продолжительность : 1 ч. 25 м.
Битрейт : 2050 Кбит/сек
Ширина : 698 пикселей
Высота : 572 пикселя
Соотношение сторон : 4:3
Соотношение сторон в оригинале : 4:3
Режим частоты кадров : Постоянный
Частота кадров : 25,000 кадров/сек
Цветовое пространство : YUV
Субдискретизация насыщенности : 4:2:0
Битовая глубина : 8 бит
Тип развёртки : Прогрессивная
Бит/(Пиксели*Кадры) : 0.205
Размер потока : 1,19 Гбайт (82%)
Библиотека кодирования : x264 core 142 r2431 ac76440
Настройки программы : cabac=1 / ref=16 / deblock=1:-2:-2 / analyse=0x3:0x133 / me=umh / subme=10 / psy=1 / psy_rd=1.05:0.15 / mixed_ref=1 / me_range=32 / chroma_me=1 / trellis=2 / 8x8dct=1 / cqm=0 / deadzone=21,11 / fast_pskip=0 / chroma_qp_offset=-3 / threads=12 / lookahead_threads=2 / sliced_threads=0 / nr=0 / decimate=0 / interlaced=0 / bluray_compat=0 / constrained_intra=0 / bframes=8 / b_pyramid=2 / b_adapt=2 / b_bias=0 / direct=3 / weightb=1 / open_gop=0 / weightp=2 / keyint=250 / keyint_min=25 / scenecut=40 / intra_refresh=0 / rc=2pass / mbtree=0 / bitrate=2050 / ratetol=1.0 / qcomp=0.65 / qpmin=0 / qpmax=39 / qpstep=4 / cplxblur=20.0 / qblur=0.5 / ip_ratio=1.40 / pb_ratio=1.30 / aq=1:1.00
Язык : English
Default : Да
Forced : Нет
Основные цвета : BT.601 PAL
Характеристики трансфера : BT.470 System B, BT.470 System G
Коэффициенты матрицы : BT.601
Аудио
Идентификатор : 2
Формат : AC-3
Формат/Информация : Audio Coding 3
Расширение режима : CM (complete main)
Параметр Endianness формата : Big
Идентификатор кодека : A_AC3
Продолжительность : 1 ч. 25 м.
Вид битрейта : Постоянный
Битрейт : 384 Кбит/сек
Каналы : 2 канала
Расположение каналов : Front: L R
Частота : 48,0 КГц
Битовая глубина : 16 бит
Метод сжатия : С потерями
Задержка видео : 4 мс.
Размер потока : 234 Мбайт (16%)
Язык : Russian
Default : Да
Forced : Нет
Спасибо за исходник DVB - MIFAL
[Профиль] [ЛС]
Кто просматривает тему:

Показать сообщения:    

Текущее время: Сегодня 10:08

Часовой пояс: GMT



Вы не можете начинать темы
Вы не можете отвечать на сообщения
Вы не можете редактировать свои сообщения
Вы не можете удалять свои сообщения
Вы не можете голосовать в опросах
Вы не можете прикреплять файлы к сообщениям
Вы не можете скачивать файлы