Василиса Прекрасная (1939) DVDRip от New-Team

 
Автор Сообщение

sergej644 ®

Пол:

Стаж: 4 года 11 месяцев

Сообщений: 6044

Откуда: Soviet Union



Награды: Нет

Торрент-статистика

Создавать темы 06-Дек-2014 19:24

[Цитировать]

--Василиса Прекрасная (1939) DVDRip
Страна: СССР
Производство: Союздетфильм
Жанр: фэнтези, семейный
Год выпуска: 1939
Продолжительность: 01:10:08
Перевод: Не требуется
Cубтитры: нет
Оригинальная аудиодорожка: русский
Режиссер: Александр Роу
В ролях:
Георгий Милляр, Сергей Столяров, Валентина Сорогожская, Лев Потемкин, Никита Кондратьев, Ирина Зарубина, Лидия Сухаревская, Татьяна Барышева, Мария Барабанова, Л. Скавронская...
Описание:
Задумал отец женить трех своих сыновей. Вышли братья в чистое поле и пустили стрелы в разные стороны. Стрела старшего сына упала на боярский двор, к боярской дочери, стрела среднего сына — упала на двор купеческой, а стрела Ивана, младшего сына упала на болото к лягушке-квакушке…- -Источник: DVD5 R5
Качество видео: DVDRip
Формат видео: AVI
Виде: 704x528 (4:3), 25 fps, XviD ~ 1768 kbps avg, 0.190 bit/pixel
Аудио: 48 kHz, Dolby Digital AC3 5.1, 448 kbps
Раздача от:

MI

Общее
Полное имя                               : Vasilisa.Prekrasnaya.1939.DVDRip_[New-team]_by_AVP_Studio.avi
Формат                                   : AVI
Формат/Информация                        : Audio Video Interleave
Размер файла                             : 1,09 Гбайт
Продолжительность                        : 1 ч. 10 м.
Общий поток                              : 2225 Кбит/сек
Программа кодирования                    : VirtualDubModRus 1.5.10.2 (build 2542/release)
Библиотека кодирования                   : VirtualDubMod build 2542/release
Видео
Идентификатор                            : 0
Формат                                   : MPEG-4 Visual
Профиль формата                          : Advanced Simple@L5
Параметр BVOP формата                    : 1
Параметр QPel формата                    : Нет
Параметр GMC формата                     : Без точки перехода
Параметр матрицы формата                 : Выборочная
Идентификатор кодека                     : XVID
Идентификатор кодека/Подсказка           : XviD
Продолжительность                        : 1 ч. 10 м.
Битрейт                                  : 1768 Кбит/сек
Ширина                                   : 704 пикселя
Высота                                   : 528 пикселей
Соотношение сторон                       : 4:3
Частота кадров                           : 25,000 кадров/сек
Цветовое пространство                    : YUV
Субдискретизация насыщенности            : 4:2:0
Битовая глубина                          : 8 бит
Тип развёртки                            : Прогрессивная
Метод сжатия                             : С потерями
Бит/(Пиксели*Кадры)                      : 0.190
Размер потока                            : 887 Мбайт (79%)
Библиотека кодирования                   : XviD 73
Аудио
Идентификатор                            : 1
Формат                                   : AC-3
Формат/Информация                        : Audio Coding 3
Расширение режима                        : CM (complete main)
Параметр Endianness формата              : Big
Идентификатор кодека                     : 2000
Продолжительность                        : 1 ч. 10 м.
Вид битрейта                             : Постоянный
Битрейт                                  : 448 Кбит/сек
Каналы                                   : 6 каналов
Расположение каналов                     : Front: L C R, Side: L R, LFE
Частота                                  : 48,0 КГц
Битовая глубина                          : 16 бит
Метод сжатия                             : С потерями
Размер потока                            : 225 Мбайт (20%)
Выравнивание                             : Разделение по промежуткам
Продолжительность промежутка             : 40  мс. (1,00 видеокадр)
Время предзагрузки промежутка            : 500  мс
-

Скриншоты

[Профиль] [ЛС]
Показать сообщения:    

Текущее время: Сегодня 10:03

Часовой пояс: GMT



Вы не можете начинать темы
Вы не можете отвечать на сообщения
Вы не можете редактировать свои сообщения
Вы не можете удалять свои сообщения
Вы не можете голосовать в опросах
Вы не можете прикреплять файлы к сообщениям
Вы не можете скачивать файлы