Василий Буслаев (Геннадий Васильев) [1982 г., фэнтези, драма, история, DVDRip-AVC]

 
Автор Сообщение

Bathory ®

Пол:

Стаж: 9 месяцев 2 дня

Сообщений: 169



Награды: 3 (Подробнее)

За внесенный вклад в развитие сайта (Количество: 1) Girls (Количество: 1) Друг (Количество: 1)
Торрент-статистика

Создавать темы 30-Май-2016 18:58

[Цитировать]

Василий Буслаев- Информация о фильме
Название: Василий Буслаев
Год выхода: 1982
Жанр: фэнтези, драма, история
Режиссер: Геннадий Васильев
В ролях: Дмитрий Золотухин, Людмила Хитяева, Ирина Алфёрова, Дмитрий Матвеев, Алексей Зайцев, Валерий Носик, Наталья Крачковская, Михаил Кокшенов, Матлюба Алимова, Николай Погодин
О фильме:
Фильм-сказка о былинном русском богатыре Василии Буслаеве — сыне Новгородского посадника. Жил он как хотел, сам по себе: не верил ни в сон, ни в чех, ни в змеиный шип, ни в вороний грай. Сила и мощь Василия, сына Новгородского посадника (губернатора), водившего дружбу с простым народом, приводила в бешенство и нагоняла страх на разжиревших купцов новгородских. Дана была ему Богом сила Великая, а кому много дадено, с того много спросится.
Грянула беда: напал на святую Русь народ немилостивый, лютый, младости детей и немощи старцев не щадящий, и стал Василий — русский богатырь, щитом и мечом родимой земле, господину Великому Новгороду… Когда купцы узнали, что юноша собирается в поход во имя спасения своей земли от ворога, радости их не было границ. Разве можно сломить ту силу великую! Но Василий кладет конец всяческим козням и доводит свою экспедицию до победного конца. Он возвращается домой героем и еще привозит с собой зазнобу.

Страна: СССР
Студия: Киностудия им. М.Горького
Продолжительность: 01:16:32
Перевод: Не требуется: оригинал
Файл
Кодек: AVC
Качество: DVDRip-AVC
Видео: 712x472@1013x472, 2534 kbps, 25 fps, 0,302 Bits/(Pixel*Frame)
Звук: AC3, 48 kHz, 2 ch, 192 kbps
Субтитры: нет

MI

General
Unique ID : 246274846213317281226938614202066122259 (0xB946CF61DF3E7A109F5EA490D831B613)
Complete name : F:\VASILY_BUSLAEV\Vasily.Buslaev.1982.DVDRip-AVC_by_Bathory.mkv
Format : Matroska
Format version : Version 2
File size : 1.46 GiB
Duration : 1h 16mn
Overall bit rate : 2 728 Kbps
Encoded date : UTC 2016-05-30 18:37:01
Writing application : mkvmerge v9.1.0 ('Little Earthquakes') 32bit
Writing library : libebml v1.3.3 + libmatroska v1.4.4
DURATION : 01:16:32.960000000
NUMBER_OF_FRAMES : 143530
NUMBER_OF_BYTES : 110231040
_STATISTICS_WRITING_APP : mkvmerge v9.1.0 ('Little Earthquakes') 32bit
_STATISTICS_WRITING_DATE_UTC : 2016-05-30 18:37:01
_STATISTICS_TAGS : BPS DURATION NUMBER_OF_FRAMES NUMBER_OF_BYTES
Video
ID : 1
Format : AVC
Format/Info : Advanced Video Codec
Format profile : High@L4.1
Format settings, CABAC : Yes
Format settings, ReFrames : 12 frames
Codec ID : V_MPEG4/ISO/AVC
Duration : 1h 16mn
Bit rate : 2 534 Kbps
Width : 712 pixels
Height : 472 pixels
Display aspect ratio : 2.146
Original display aspect ratio : 2.145
Frame rate mode : Constant
Frame rate : 25.000 fps
Color space : YUV
Chroma subsampling : 4:2:0
Bit depth : 8 bits
Scan type : Progressive
Bits/(Pixel*Frame) : 0.302
Stream size : 1.33 GiB (91%)
Writing library : x264 core 148 r2692 64f4e24
Encoding settings : cabac=1 / ref=12 / deblock=1:-2:-2 / analyse=0x3:0x133 / me=umh / subme=11 / psy=1 / psy_rd=1.12:0.16 / mixed_ref=1 / me_range=32 / chroma_me=1 / trellis=2 / 8x8dct=1 / cqm=0 / deadzone=21,11 / fast_pskip=0 / chroma_qp_offset=-3 / threads=12 / lookahead_threads=3 / sliced_threads=0 / nr=0 / decimate=0 / interlaced=0 / bluray_compat=0 / constrained_intra=0 / bframes=14 / b_pyramid=2 / b_adapt=2 / b_bias=0 / direct=3 / weightb=1 / open_gop=0 / weightp=2 / keyint=250 / keyint_min=25 / scenecut=0 / intra_refresh=0 / rc_lookahead=60 / rc=2pass / mbtree=1 / bitrate=2534 / ratetol=1.0 / qcomp=0.70 / qpmin=0 / qpmax=69 / qpstep=4 / cplxblur=15.0 / qblur=0.5 / vbv_maxrate=50000 / vbv_bufsize=62500 / nal_hrd=none / filler=0 / ip_ratio=1.40 / aq=2:1.00
Default : Yes
Forced : No
Audio
ID : 2
Format : AC-3
Format/Info : Audio Coding 3
Mode extension : CM (complete main)
Format settings, Endianness : Big
Codec ID : A_AC3
Duration : 1h 16mn
Bit rate mode : Constant
Bit rate : 192 Kbps
Channel(s) : 2 channels
Channel positions : Front: L R
Sampling rate : 48.0 KHz
Bit depth : 16 bits
Compression mode : Lossy
Stream size : 105 MiB (7%)
Default : Yes
Forced : No

Скриншоты

Релиз от:
Автор рипа: Bathory
[Профиль] [ЛС]
Показать сообщения:    

Текущее время: Сегодня 13:50

Часовой пояс: GMT



Вы не можете начинать темы
Вы не можете отвечать на сообщения
Вы не можете редактировать свои сообщения
Вы не можете удалять свои сообщения
Вы не можете голосовать в опросах
Вы не можете прикреплять файлы к сообщениям
Вы не можете скачивать файлы