Варшавский Договор. Рассекреченные Страницы (Дмитрий Ушаков) [2015, Документальный, HDTV 720p]

 
Автор Сообщение

TorrentFilm ®

Пол:

Стаж: 2 года

Сообщений: 7741



Награды: Нет

Торрент-статистика

Создавать темы 22-Май-2015 00:04

[Цитировать]

Варшавский Договор. Рассекреченные Страницы- Год выпуска: 2015
Страна: Россия
Студия: Россия HD
Жанр: Документальный
Продолжительность: 0;43:58
Автор: Марина Петухова
Режиссер: Дмитрий Ушаков-Описание: В 2005 году Польша сделала заявление, которое стало сенсацией - объявила о намерении рассекретить документы Организации Варшавского договора – военного союза социалистических стран, созданного в противовес НАТО. Европейская и мировая пресса пестрели броскими заголовками, анонсируя скорое разоблачение коварных и агрессивных планов лидеров бывшего соцлагеря...-Автор рипа: lrn
Автор записи: Generalfilm
Сэмпл: sendfile-Тип релиза: HDTV 720p
Контейнер: MKV
Видео: 1280x720 (16:9), 25,000 fps, H264, ~4000 kbps avg, ~0.174 bit/pixel
Аудио: 48 kHz, AC3 Dolby Digital, 2/0 (L,R) ch, ~192.00 kbps avg-

MediaInfo

GeneralUnique ID : 200024338607013359523651199325015986691 (0x967B494D1DBF887A9568DD0BEE395203)Complete name : E:\uTorrent.Temp\Temp\Varshavskiy.Dogovor.Rassekrechennie.Stranicy.2015.HDTV.720p.x264-lrn.mkvFormat : MatroskaFormat version : Version 4 / Version 2File size : 1.29 GiBDuration : 43mn 58sOverall bit rate : 4 194 KbpsMovie name : Varshavskiy.Dogovor.Rassekrechennie.Stranicy.2015.HDTV.720p.x264-lrnEncoded date : UTC 2010-02-22 21:41:31Writing application : mkvmerge v5.9.0 ('On The Loose') built on Dec 9 2012 15:37:01Writing library : libebml v1.3.0 + libmatroska v1.4.0DURATION : 00:43:58.320000000NUMBER_OF_FRAMES : 65958NUMBER_OF_BYTES : 1319291277_STATISTICS_WRITING_APP : mkvmerge v7.7.0 ('Six Voices') 32bit built on Feb 28 2015 23:23:00_STATISTICS_WRITING_DATE_UT : 2015-05-21 16:30:44_STATISTICS_TAGS : BPS DURATION NUMBER_OF_FRAMES NUMBER_OF_BYTES
VideoID : 1Format : AVCFormat/Info : Advanced Video CodecFormat profile : High@L4.1Format settings, CABAC : YesFormat settings, ReFrames : 8 framesCodec ID : V_MPEG4/ISO/AVCDuration : 43mn 58sBit rate : 4 000 KbpsWidth : 1 280 pixelsHeight : 720 pixelsDisplay aspect ratio : 16:9Frame rate mode : ConstantFrame rate : 25.000 fpsColor space : YUVChroma subsampling : 4:2:0Bit depth : 8 bitsScan type : ProgressiveBits/(Pixel*Frame) : 0.174Stream size : 1.20 GiB (93%)Writing library : x264 core 146 r2538 121396cEncoding settings : cabac=1 / ref=8 / deblock=1:-3:-3 / analyse=0x3:0x133 / me=umh / subme=9 / psy=1 / psy_rd=1.00:0.00 / mixed_ref=1 / me_range=32 / chroma_me=1 / trellis=2 / 8x8dct=1 / cqm=0 / deadzone=21,11 / fast_pskip=1 / chroma_qp_offset=-2 / threads=12 / lookahead_threads=2 / sliced_threads=0 / nr=0 / decimate=1 / interlaced=0 / bluray_compat=0 / constrained_intra=0 / bframes=8 / b_pyramid=2 / b_adapt=2 / b_bias=0 / direct=3 / weightb=1 / open_gop=0 / weightp=2 / keyint=250 / keyint_min=25 / scenecut=40 / intra_refresh=0 / rc_lookahead=50 / rc=2pass / mbtree=1 / bitrate=4000 / ratetol=1.0 / qcomp=0.60 / qpmin=0 / qpmax=69 / qpstep=4 / cplxblur=20.0 / qblur=0.5 / vbv_maxrate=62500 / vbv_bufsize=78125 / nal_hrd=none / filler=0 / ip_ratio=1.40 / aq=1:1.00Default : YesForced : No
AudioID : 2Format : AC-3Format/Info : Audio Coding 3Mode extension : CM (complete main)Format settings, Endianness : BigCodec ID : A_AC3Duration : 43mn 58sBit rate mode : ConstantBit rate : 192 KbpsChannel(s) : 2 channelsChannel positions : Front: L RSampling rate : 48.0 KHzCompression mode : LossyStream size : 60.4 MiB (5%)Language : RussianDefault : YesForced : No

x264 log

raw [info]: 1280x720p 1:1 @ 25/1 fps (cfr)x264 [info]: using SAR=1/1x264 [info]: using cpu capabilities: MMX2 SSE2Fast SSSE3 SSE4.2 AVXx264 [info]: profile High, level 4.1x264 [info]: frame I:402 Avg QP:13.98 size:101284x264 [info]: frame P:18453 Avg QP:16.81 size: 39645x264 [info]: frame B:47103 Avg QP:19.19 size: 11613x264 [info]: consecutive B-frames: 5.2% 5.9% 9.2% 46.1% 14.8% 11.4% 2.6% 2.8% 1.9%x264 [info]: mb I I16..4: 6.3% 69.8% 23.9%x264 [info]: mb P I16..4: 3.4% 21.6% 3.2% P16..4: 33.0% 19.5% 11.2% 0.6% 0.2% skip: 7.5%x264 [info]: mb B I16..4: 0.6% 3.2% 0.3% B16..8: 33.1% 12.5% 2.9% direct: 7.2% skip:40.1% L0:40.6% L1:46.2% BI:13.2%x264 [info]: 8x8 transform intra:76.7% inter:62.6%x264 [info]: direct mvs spatial:97.2% temporal:2.8%x264 [info]: coded y,uvDC,uvAC intra: 72.5% 70.5% 41.9% inter: 23.5% 26.4% 3.1%x264 [info]: i16 v,h,dc,p: 31% 22% 4% 43%x264 [info]: i8 v,h,dc,ddl,ddr,vr,hd,vl,hu: 20% 17% 10% 6% 8% 9% 10% 9% 11%x264 [info]: i4 v,h,dc,ddl,ddr,vr,hd,vl,hu: 23% 19% 6% 6% 10% 10% 10% 7% 8%x264 [info]: i8c dc,h,v,p: 41% 28% 21% 11%x264 [info]: Weighted P-Frames: Y:2.2% UV:0.8%x264 [info]: ref P L0: 56.2% 11.6% 15.0% 5.4% 4.0% 3.0% 2.6% 1.9% 0.3% 0.0%x264 [info]: ref B L0: 79.6% 10.1% 4.5% 2.3% 1.8% 1.1% 0.6%x264 [info]: ref B L1: 93.9% 6.1%x264 [info]: kb/s:4000.40encoded 65958 frames, 14.46 fps, 4000.40 kb/s

Скриншоты

-
[Профиль] [ЛС]
Показать сообщения:    

Текущее время: Сегодня 18:14

Часовой пояс: GMT



Вы не можете начинать темы
Вы не можете отвечать на сообщения
Вы не можете редактировать свои сообщения
Вы не можете удалять свои сообщения
Вы не можете голосовать в опросах
Вы не можете прикреплять файлы к сообщениям
Вы не можете скачивать файлы