Варкрафт / Warcraft (2016) BDRip 1080p от NNNB | D, A

 
Автор Сообщение

Russian Mafia ®

Пол:

Стаж: 1 год 8 месяцев

Сообщений: 4247



Награды: 10 (Подробнее)

Mega Seeder 3 (Количество: 1) Top Releaser 3 (Количество: 1) Mega Seeder 5 (Количество: 1)
Торрент-статистика

Создавать темы 18-Окт-2016 09:07

[Цитировать]

Варкрафт / Warcraft
«Два мира - одна судьба»
Русское название: Варкрафт
Оригинальное название: Warcraft
Год выпуска: 2016
Жанр: фэнтези, боевик, приключения
Выпущено: Китай, Канада, Япония, США
Режиссер: Дункан Джонс
В ролях: Трэвис Фиммел , Пола Пэттон , Бен Фостер , Доминик Купер , Тоби Кеббелл , Бен Шнетцер , Роберт Казински , Клэнси Браун , Дэниэл Ву , Рут Негга , Анна Галвин , Каллум Кит Ренни
Перевод: Дублированный, Авторский одноголосый

Сюжет фильма:
Веками магия и неприступные стены защищали людей от любых напастей. Но древнее зло, побежденное и забытое тысячелетия назад, пробудилось.

Качество: BDRip 1080p
Формат: AVC (библиотека кодирования x.264)
Контейнер (Расширение): MKV
Видео: 1920x790, 13000 Кбит/сек, 23,976 кадр/сек, 0,357 Бит/[Пиксели*Кадры]
Аудио №1: русский / AC3 / 5.1 / 48 kHz / 640 kbps / |Дублированный|
Аудио №2: русский / AC3 / 5.1 / 48 kHz / 640 kbps / |Авторский одноголосый, Д.Есарев|
Аудио №3: английский / AC3 / 5.1 / 48 kHz / 640 kbps /
Субтитры: русские (Forced), русские (Full), русские (Full Nunegsdli), английские (Full), английские (SDH)
Навигация по главам(Чаптеры): есть
Продолжительность: 02:03:07
Видеоряд: HDMaNiAcSРелиз от: Сообщество: ***Перевод Дмитрия Есарева доступен благодаря переулку Переводмана: Прохожий, Pr0peLLer, Star Dog, shandorra, ana2363, Shrooms, ZeDOK, Start.Point, MonSsa, ivan_aka_flint, otputi

MediaInfo

Format : Matroska
Format version : Version 2
File size : 12.8 GiB
Duration : 2 h 3 min
Overall bit rate : 14.9 Mb/s
Movie name : Warcraft.(2016).BDRip.1080p.[denis100]
Encoded date : UTC 2016-10-17 20:47:16
Writing application : mkvmerge v5.8.0 ('No Sleep / Pillow') built on Sep 2 2012 15:37:04
Writing library : libebml v1.2.3 + libmatroska v1.3.0
Video
ID : 1
Format : AVC
Format/Info : Advanced Video Codec
Format profile : High@L4.1
Format settings, CABAC : Yes
Format settings, ReFrames : 5 frames
Codec ID : V_MPEG4/ISO/AVC
Duration : 2 h 3 min
Bit rate : 13.0 Mb/s
Width : 1 920 pixels
Height : 790 pixels
Display aspect ratio : 2.40:1
Frame rate mode : Constant
Frame rate : 23.976 (24000/1001) FPS
Color space : YUV
Chroma subsampling : 4:2:0
Bit depth : 8 bits
Scan type : Progressive
Bits/(Pixel*Frame) : 0.357
Stream size : 10.9 GiB (85%)
Title : Warcraft.(2016).BDRip.1080p.[denis100]
Writing library : x264 core 146 r2538 121396c
Encoding settings : cabac=1 / ref=5 / deblock=1:-3:-3 / analyse=0x3:0x133 / me=tesa / subme=11 / psy=1 / psy_rd=1.04:0.00 / mixed_ref=1 / me_range=32 / chroma_me=1 / trellis=2 / 8x8dct=1 / cqm=0 / deadzone=21,11 / fast_pskip=0 / chroma_qp_offset=-2 / threads=60 / lookahead_threads=6 / sliced_threads=0 / nr=0 / decimate=0 / interlaced=0 / bluray_compat=0 / constrained_intra=0 / bframes=9 / b_pyramid=2 / b_adapt=2 / b_bias=0 / direct=3 / weightb=1 / open_gop=0 / weightp=2 / keyint=240 / keyint_min=23 / scenecut=40 / intra_refresh=0 / rc_lookahead=150 / rc=2pass / mbtree=0 / bitrate=13000 / ratetol=1.0 / qcomp=0.60 / qpmin=0 / qpmax=69 / qpstep=4 / cplxblur=20.0 / qblur=0.5 / vbv_maxrate=62500 / vbv_bufsize=78125 / nal_hrd=none / filler=0 / ip_ratio=1.40 / pb_ratio=1.30 / aq=1:0.80 / zones=13298,13555,b=1.4/55219,55493,b=1.4/163947,177119,b=0.2
Language : English
Default : Yes
Forced : No
Color range : Limited
Matrix coefficients : BT.709
Audio #1
ID : 2
Format : AC-3
Format/Info : Audio Coding 3
Mode extension : CM (complete main)
Format settings, Endianness : Big
Codec ID : A_AC3
Duration : 2 h 3 min
Bit rate mode : Constant
Bit rate : 640 kb/s
Channel(s) : 6 channels
Channel positions : Front: L C R, Side: L R, LFE
Sampling rate : 48.0 kHz
Frame rate : 31.250 FPS (1536 spf)
Compression mode : Lossy
Stream size : 564 MiB (4%)
Title : Дублированный, BD EUR
Language : Russian
Default : Yes
Forced : No
Audio #2
ID : 3
Format : AC-3
Format/Info : Audio Coding 3
Mode extension : CM (complete main)
Format settings, Endianness : Big
Codec ID : A_AC3
Duration : 2 h 3 min
Bit rate mode : Constant
Bit rate : 640 kb/s
Channel(s) : 6 channels
Channel positions : Front: L C R, Side: L R, LFE
Sampling rate : 48.0 kHz
Frame rate : 31.250 FPS (1536 spf)
Compression mode : Lossy
Stream size : 564 MiB (4%)
Title : AVO, Есарев
Language : Russian
Default : No
Forced : No
Audio #3
ID : 4
Format : AC-3
Format/Info : Audio Coding 3
Mode extension : CM (complete main)
Format settings, Endianness : Big
Codec ID : A_AC3
Duration : 2 h 3 min
Bit rate mode : Constant
Bit rate : 640 kb/s
Channel(s) : 6 channels
Channel positions : Front: L C R, Side: L R, LFE
Sampling rate : 48.0 kHz
Frame rate : 31.250 FPS (1536 spf)
Compression mode : Lossy
Stream size : 564 MiB (4%)
Language : English
Default : No
Forced : No
Text #1
ID : 5
Format : UTF-8
Codec ID : S_TEXT/UTF8
Codec ID/Info : UTF-8 Plain Text
Title : Forced
Language : Russian
Default : Yes
Forced : No
Text #2
ID : 6
Format : UTF-8
Codec ID : S_TEXT/UTF8
Codec ID/Info : UTF-8 Plain Text
Title : Full
Language : Russian
Default : No
Forced : No
Text #3
ID : 7
Format : UTF-8
Codec ID : S_TEXT/UTF8
Codec ID/Info : UTF-8 Plain Text
Title : Full Nunegsdli
Language : Russian
Default : No
Forced : No
Text #4
ID : 8
Format : UTF-8
Codec ID : S_TEXT/UTF8
Codec ID/Info : UTF-8 Plain Text
Title : Full
Language : English
Default : No
Forced : No
Text #5
ID : 9
Format : UTF-8
Codec ID : S_TEXT/UTF8
Codec ID/Info : UTF-8 Plain Text
Title : SDH
Language : English
Default : No
Forced : No
Menu
00:00:00.000 : en:Chapter 1
00:09:26.483 : en:Chapter 2
00:15:49.407 : en:Chapter 3
00:22:36.146 : en:Chapter 4
00:29:16.171 : en:Chapter 5
00:38:43.321 : en:Chapter 6
00:46:44.093 : en:Chapter 7
00:53:02.679 : en:Chapter 8
00:56:17.332 : en:Chapter 9
01:02:43.927 : en:Chapter 10
01:07:48.314 : en:Chapter 11
01:12:24.549 : en:Chapter 12
01:17:13.045 : en:Chapter 13
01:22:45.669 : en:Chapter 14
01:26:32.145 : en:Chapter 15
01:32:29.669 : en:Chapter 16
01:40:25.102 : en:Chapter 17
01:47:38.118 : en:Chapter 18
01:51:12.833 : en:Chapter 19
01:53:58.832 : en:Chapter 20

Скриншоты

[Профиль] [ЛС]
Показать сообщения:    

Текущее время: Сегодня 20:02

Часовой пояс: GMT



Вы не можете начинать темы
Вы не можете отвечать на сообщения
Вы не можете редактировать свои сообщения
Вы не можете удалять свои сообщения
Вы не можете голосовать в опросах
Вы не можете прикреплять файлы к сообщениям
Вы не можете скачивать файлы