Варкрафт / Warcraft (2016) BDRemux 1080p от ExKinoRay | D, A | Лицензия

 
Автор Сообщение

Russian Mafia ®

Пол:

Стаж: 1 год 8 месяцев

Сообщений: 4247



Награды: 10 (Подробнее)

Top Releaser 4 (Количество: 1) Top Releaser 2 (Количество: 1) Mega Seeder 3 (Количество: 1)
Торрент-статистика

Создавать темы 18-Окт-2016 07:31

[Цитировать]

Информация о фильме
Название: Варкрафт
Оригинальное название: Warcraft
Год выхода: 2016
Жанр: Фэнтези, боевик, приключения
Режиссер: Дункан Джонс
В ролях: Трэвис Фиммел, Пола Пэттон, Бен Фостер, Доминик Купер, Тоби Кеббелл, Бен Шнетцер, Роберт Казински, Клэнси Браун, Дэниэл Ву, Рут Негга
О фильме:
Веками магия и неприступные стены защищали людей от любых напастей. Но древнее зло, побежденное и забытое тысячелетия назад, пробудилось. В самом сердце королевства открылся темный портал, и раса невиданных существ наводнила земли Азерота. Так начались события, призванные навсегда изменить судьбу этого мира.

Страна: США
Студия: Blizzard Entertainment, Legendary Pictures, Universal Pictures
Продолжительность: 02:03:07
Перевод(ы):
#1: Дублированный | Лицензия
#2: Авторский одноголосый (закадровый) | Д. Есарев
Файл
Кодек: MPEG-4
Качество: BDRemux 1080p
Видео: 1920x1080, 21.2 Mbit/s, 23.976 fps
Звук:
Аудио #01: 48 kHz, AC3, 5.1, 640 Kbps | Дублированный, Лицензия |
Аудио #02: 48 kHz, DTS-HD MA, 7.1, 5146 Kbps | Авторский одноголосый (закадровый) |
Аудио #03: 48 kHz, AC3, 5.1, 640 Kbps | Авторский одноголосый (закадровый) |
Аудио #04: 48 kHz, TrueHD, 7.1, 4834 kbps | Оригинал |
Субтитры: Русские (2xforced, 3xfull), латышские, литовские, эстонские, украинские, английские (3xfull, 3xSDH)

MI

General
Unique ID : 247385515354583180154474537475955879153 (0xBA1CB7994C868C5E99D302A0689DECF1)
Complete name : H:VideoWarcraft.2016.D.AVO.BDREMUX.1080p.ExKinoRay.mkv
Format : Matroska
Format version : Version 4 / Version 2
File size : 28.0 GiB
Duration : 2 h 3 min
Overall bit rate mode : Variable
Overall bit rate : 32.5 Mb/s
Movie name : build by ***селезень***
Encoded date : UTC 2016-10-18 05:39:03
Writing application : mkvmerge v8.3.0 ('Over the Horizon') 64bit
Writing library : libebml v1.3.1 + libmatroska v1.4.2
Video
ID : 1
Format : AVC
Format/Info : Advanced Video Codec
Format profile : High@L4.1
Format settings, CABAC : Yes
Format settings, ReFrames : 4 frames
Format settings, GOP : M=3, N=12
Codec ID : V_MPEG4/ISO/AVC
Duration : 2 h 3 min
Bit rate mode : Variable
Bit rate : 21.2 Mb/s
Maximum bit rate : 31.5 Mb/s
Width : 1 920 pixels
Height : 1 080 pixels
Display aspect ratio : 16:9
Frame rate mode : Constant
Frame rate : 23.976 (24000/1001) FPS
Color space : YUV
Chroma subsampling : 4:2:0
Bit depth : 8 bits
Scan type : Progressive
Bits/(Pixel*Frame) : 0.426
Stream size : 18.2 GiB (65%)
Title : build by ***селезень***
Language : English
Default : Yes
Forced : No
Audio #1
ID : 2
Format : AC-3
Format/Info : Audio Coding 3
Mode extension : CM (complete main)
Format settings, Endianness : Big
Codec ID : A_AC3
Duration : 2 h 3 min
Bit rate mode : Constant
Bit rate : 640 kb/s
Channel(s) : 6 channels
Channel positions : Front: L C R, Side: L R, LFE
Sampling rate : 48.0 kHz
Frame rate : 31.250 FPS (1536 spf)
Compression mode : Lossy
Stream size : 564 MiB (2%)
Title : Dub [License]
Language : Russian
Default : Yes
Forced : No
Audio #2
ID : 3
Format : DTS
Format/Info : Digital Theater Systems
Format profile : MA / Core
Mode : 16
Format settings, Endianness : Big
Codec ID : A_DTS
Duration : 2 h 3 min
Bit rate mode : Variable / Constant
Bit rate : 5 146 kb/s / 1 509 kb/s
Channel(s) : 8 channels / 6 channels
Channel positions : Front: L C R, Side: L R, Back: L R, LFE / Front: L C R, Side: L R, LFE
Sampling rate : 48.0 kHz
Frame rate : 93.750 FPS (512 spf)
Bit depth : 24 bits
Compression mode : Lossless / Lossy
Stream size : 4.43 GiB (16%)
Title : AVO-DTS-HD MA [Esarev]
Language : Russian
Default : No
Forced : No
Audio #3
ID : 4
Format : AC-3
Format/Info : Audio Coding 3
Mode extension : CM (complete main)
Format settings, Endianness : Big
Codec ID : A_AC3
Duration : 2 h 3 min
Bit rate mode : Constant
Bit rate : 640 kb/s
Channel(s) : 6 channels
Channel positions : Front: L C R, Side: L R, LFE
Sampling rate : 48.0 kHz
Frame rate : 31.250 FPS (1536 spf)
Compression mode : Lossy
Stream size : 564 MiB (2%)
Title : AVO-AC3 [Esarev]
Language : Russian
Default : No
Forced : No
Audio #4
ID : 5
Format : Atmos / TrueHD
Codec ID : A_TRUEHD
Duration : 2 h 3 min
Bit rate mode : Variable
Bit rate : 4 834 kb/s
Maximum bit rate : 7 893 kb/s
Channel(s) : Object Based / 8 channels
Channel positions : Object Based / Front: L C R, Side: L R, Back: L R, LFE
Sampling rate : / 48.0 kHz
Frame rate : 1 200.000 FPS (40 spf)
Compression mode : Lossless
Stream size : 4.16 GiB (15%)
Title : Original
Language : English
Default : No
Forced : No
Text #1
ID : 6
Format : UTF-8
Codec ID : S_TEXT/UTF8
Codec ID/Info : UTF-8 Plain Text
Duration : 1 h 43 min
Bit rate : 0 b/s
Count of elements : 9
Stream size : 305 Bytes (0%)
Title : Forced BD
Language : Russian
Default : Yes
Forced : No
Text #2
ID : 7
Format : UTF-8
Codec ID : S_TEXT/UTF8
Codec ID/Info : UTF-8 Plain Text
Duration : 1 h 52 min
Bit rate : 60 b/s
Count of elements : 1216
Stream size : 49.7 KiB (0%)
Title : Full BD
Language : Russian
Default : No
Forced : No
Text #3
ID : 8
Format : UTF-8
Codec ID : S_TEXT/UTF8
Codec ID/Info : UTF-8 Plain Text
Duration : 1 h 58 min
Bit rate : 0 b/s
Count of elements : 17
Stream size : 531 Bytes (0%)
Title : Forced MBB
Language : Russian
Default : No
Forced : No
Text #4
ID : 9
Format : UTF-8
Codec ID : S_TEXT/UTF8
Codec ID/Info : UTF-8 Plain Text
Duration : 2 h 1 min
Bit rate : 56 b/s
Count of elements : 1378
Stream size : 50.3 KiB (0%)
Title : Full MBB
Language : Russian
Default : No
Forced : No
Text #5
ID : 10
Format : UTF-8
Codec ID : S_TEXT/UTF8
Codec ID/Info : UTF-8 Plain Text
Duration : 1 h 55 min
Bit rate : 57 b/s
Count of elements : 1054
Stream size : 48.4 KiB (0%)
Title : Full Nunegsdli
Language : Russian
Default : No
Forced : No
Text #6
ID : 11
Format : UTF-8
Codec ID : S_TEXT/UTF8
Codec ID/Info : UTF-8 Plain Text
Duration : 2 h 1 min
Bit rate : 33 b/s
Count of elements : 1248
Stream size : 29.7 KiB (0%)
Title : Full
Language : Latvian
Default : No
Forced : No
Text #7
ID : 12
Format : UTF-8
Codec ID : S_TEXT/UTF8
Codec ID/Info : UTF-8 Plain Text
Duration : 2 h 1 min
Bit rate : 35 b/s
Count of elements : 1204
Stream size : 31.4 KiB (0%)
Title : Full
Language : Lithuanian
Default : No
Forced : No
Text #8
ID : 13
Format : UTF-8
Codec ID : S_TEXT/UTF8
Codec ID/Info : UTF-8 Plain Text
Duration : 2 h 1 min
Bit rate : 30 b/s
Count of elements : 1220
Stream size : 27.0 KiB (0%)
Title : Full
Language : Estonian
Default : No
Forced : No
Text #9
ID : 14
Format : UTF-8
Codec ID : S_TEXT/UTF8
Codec ID/Info : UTF-8 Plain Text
Duration : 2 h 1 min
Bit rate : 43 b/s
Count of elements : 1209
Stream size : 38.5 KiB (0%)
Title : Full
Language : Ukrainian
Default : No
Forced : No
Text #10
ID : 15
Format : UTF-8
Codec ID : S_TEXT/UTF8
Codec ID/Info : UTF-8 Plain Text
Duration : 1 h 52 min
Bit rate : 35 b/s
Count of elements : 1074
Stream size : 29.4 KiB (0%)
Title : Full
Language : English
Default : No
Forced : No
Text #11
ID : 16
Format : UTF-8
Codec ID : S_TEXT/UTF8
Codec ID/Info : UTF-8 Plain Text
Duration : 2 h 1 min
Bit rate : 33 b/s
Count of elements : 1328
Stream size : 30.0 KiB (0%)
Title : Full1
Language : English
Default : No
Forced : No
Text #12
ID : 17
Format : UTF-8
Codec ID : S_TEXT/UTF8
Codec ID/Info : UTF-8 Plain Text
Duration : 1 h 52 min
Bit rate : 36 b/s
Count of elements : 1234
Stream size : 30.0 KiB (0%)
Title : Full2
Language : English
Default : No
Forced : No
Text #13
ID : 18
Format : UTF-8
Codec ID : S_TEXT/UTF8
Codec ID/Info : UTF-8 Plain Text
Duration : 1 h 53 min
Bit rate : 41 b/s
Count of elements : 1345
Stream size : 34.6 KiB (0%)
Title : SDH
Language : English
Default : No
Forced : No
Text #14
ID : 19
Format : UTF-8
Codec ID : S_TEXT/UTF8
Codec ID/Info : UTF-8 Plain Text
Duration : 2 h 2 min
Bit rate : 38 b/s
Count of elements : 1487
Stream size : 34.9 KiB (0%)
Title : SDH1
Language : English
Default : No
Forced : No
Text #15
ID : 20
Format : UTF-8
Codec ID : S_TEXT/UTF8
Codec ID/Info : UTF-8 Plain Text
Duration : 1 h 53 min
Bit rate : 41 b/s
Count of elements : 1393
Stream size : 34.8 KiB (0%)
Title : SDH2
Language : English
Default : No
Forced : No
Menu
00:00:00.000 : en:00:00:00.000
00:09:26.483 : en:00:09:26.483
00:15:49.407 : en:00:15:49.407
00:22:36.146 : en:00:22:36.146
00:29:16.171 : en:00:29:16.171
00:38:43.321 : en:00:38:43.321
00:46:44.093 : en:00:46:44.093
00:53:02.679 : en:00:53:02.679
00:56:17.332 : en:00:56:17.332
01:02:43.927 : en:01:02:43.927
01:07:48.314 : en:01:07:48.314
01:12:24.549 : en:01:12:24.549
01:17:13.045 : en:01:17:13.045
01:22:45.669 : en:01:22:45.669
01:26:32.145 : en:01:26:32.145
01:32:29.669 : en:01:32:29.669
01:40:25.102 : en:01:40:25.102
01:47:38.118 : en:01:47:38.118
01:51:12.833 : en:01:51:12.833
01:53:58.832 : en:01:53:58.832

Релиз от: Автор релиза:
[Профиль] [ЛС]
Показать сообщения:    

Текущее время: Сегодня 10:31

Часовой пояс: GMT



Вы не можете начинать темы
Вы не можете отвечать на сообщения
Вы не можете редактировать свои сообщения
Вы не можете удалять свои сообщения
Вы не можете голосовать в опросах
Вы не можете прикреплять файлы к сообщениям
Вы не можете скачивать файлы