Варвара-Краса, длинная коса (1969) BDRip [1080p]

 
Автор Сообщение

sergej644 ®

Пол:

Стаж: 4 года 11 месяцев

Сообщений: 6046

Откуда: Soviet Union



Награды: Нет

Торрент-статистика

Создавать темы 11-Янв-2015 00:59

[Цитировать]

-Варвара-Краса, длинная коса (1969) BDRip- Год выпуска: 1969
Производство: СССР, Киностудия им. М. Горького
Жанр: Семейный
Перевод: Не требуется
Субтитры: Вшитые (отключаемые)
Язык субтитров: Русские
Режиссер: Александр Роу
Актеры: Михаил Пуговкин, Георгий Милляр, Анатолий Кубацкий, Лидия Королёва, Алексей Катышев, Сергей Николаев, Татьяна Клюева, Варвара Попова, Александр Хвыля, Борис Сичкин, Валентина Ананьина, Вера Петрова, Анастасия Зуева, Лев Потёмкин
Описание фильма:
Жил да был царь Еремей. Отправился он в годовой поход, чтобы составить опись своего царства-государства. Наклонился он как-то к колодцу напиться, но тут его и схватил подводный царь Чудо — Юдо. Да потребовал выкуп за освобождение — такой, о чем Еремей не ведал и не гадал, что оно есть в его царстве. Царь согласился, еще не зная, что в его отсутствие царица родила ему сына. Фильм рассказывает о том, как несмотря на всевозможные коварства и интриги, Андрей рыбацкий сын и Варвара повстречались и полюбили друг друга, как царю Еремею пришлось краснеть за своего ленивого и глупого наследника, и как в конце концов все закончилось хорошо.

Продолжительность: 01:20:24
Качество видео: BDRip
Видеокодек: MPEG-4 AVC/H.264
Битрейт видео: ~7 166 Кбит/с
Размер кадра: 1920x824
Аудио 1: Русский DTS, 6 ch, 768 Кбит/с
Аудио 2: Русский AC3, 6 ch, 448 Кбит/с-

MediaInfo:

General
Complete name : O:\Varvara-krasa.dlinnaya.kosa.1969.BDRip.1080p.mkv
Format : Matroska
File size : 4.80 GiB
Duration : 1h 20mn
Overall bit rate : 8 539 Kbps
Movie name : Варвара-краса, длинная коса (1969)
Encoded date : UTC 2014-12-03 13:30:44
Writing application : mkvmerge v5.6.0 ('Kenya Kane') built on May 27 2012 16:44:04
Writing library : libebml v1.2.3 + libmatroska v1.3.0
Video
ID : 1
Format : AVC
Format/Info : Advanced Video Codec
Format profile : [url=mailto:High@L4.1]High@L4.1[/url]
Format settings, CABAC : Yes
Format settings, ReFrames : 5 frames
Muxing mode : Container profile=Unknown@4.1
Codec ID : V_MPEG4/ISO/AVC
Duration : 1h 20mn
Bit rate : 7 166 Kbps
Nominal bit rate : 7 333 Kbps
Width : 1 920 pixels
Height : 824 pixels
Display aspect ratio : 2.35:1
Frame rate : 25.000 fps
Resolution : 8 bits
Colorimetry : 4:2:0
Scan type : Progressive
Bits/(Pixel*Frame) : 0.181
Stream size : 4.02 GiB (84%)
Writing library : x264 core 125 r2208 d9d2288
Encoding settings : cabac=1 / ref=5 / deblock=1:-3:-3 / analyse=0x3:0x133 / me=umh / subme=9 / psy=1 / psy_rd=1.00:0.10 / mixed_ref=1 / me_range=32 / chroma_me=1 / trellis=2 / 8x8dct=1 / cqm=0 / deadzone=21,11 / fast_pskip=0 / chroma_qp_offset=-3 / threads=12 / lookahead_threads=2 / sliced_threads=0 / nr=0 / decimate=0 / interlaced=0 / bluray_compat=0 / constrained_intra=0 / bframes=5 / b_pyramid=2 / b_adapt=2 / b_bias=0 / direct=3 / weightb=1 / open_gop=0 / weightp=2 / keyint=250 / keyint_min=25 / scenecut=40 / intra_refresh=0 / rc=2pass / mbtree=0 / bitrate=7333 / ratetol=1.0 / qcomp=0.60 / qpmin=0 / qpmax=69 / qpstep=4 / cplxblur=20.0 / qblur=0.5 / ip_ratio=1.40 / pb_ratio=1.30 / aq=1:0.80
Language : Russian
Audio #1
ID : 2
Format : DTS
Format/Info : Digital Theater Systems
Codec ID : A_DTS
Duration : 1h 20mn
Bit rate mode : Constant
Bit rate : 755 Kbps
Channel(s) : 6 channels
Channel positions : Front: L C R, Surround: L R, LFE
Sampling rate : 48.0 KHz
Resolution : 24 bits
Stream size : 434 MiB (9%)
Title : DTS
Language : Russian
Audio #2
ID : 3
Format : AC-3
Format/Info : Audio Coding 3
Codec ID : A_AC3
Duration : 1h 20mn
Bit rate mode : Constant
Bit rate : 448 Kbps
Channel(s) : 6 channels
Channel positions : Front: L C R, Surround: L R, LFE
Sampling rate : 48.0 KHz
Stream size : 258 MiB (5%)
Title : AC3
Language : Russian
Text
ID : 4
Format : UTF-8
Codec ID : S_TEXT/UTF8
Codec ID/Info : UTF-8 Plain Text
Title : Rus
Language : Russian
Menu
00:00:00.000 : :Chapter 01
00:00:06.879 : :Chapter 02
00:07:40.000 : :Chapter 03
00:18:30.280 : :Chapter 04
00:27:59.560 : :Chapter 05
00:38:16.640 : :Chapter 06
00:48:13.800 : :Chapter 07
00:58:46.080 : :Chapter 08
01:08:40.920 : :Chapter 09
-Скриншоты:
Время раздачи: 24/7 - круглосуточно
Благодарности, а также конструктивное обсуждение раздачи способствует ее долгожительству и вдохновляет автора на создание новых.
[Профиль] [ЛС]
Кто просматривает тему:

Форум Тема Автор Размер
Фильмы 2011 года 2019: Новые варвары / I nuovi barbari (Энцо Дж. Кастеллари) [1983 г., фантастика, боевик, триллер, BDRip] [MVO] Bathory 1.46 GB
Научная и техническая литература Варвара Ахрименко - Дизайн малогабаритной квартиры. Правила увеличения пространства (2015) PDF достали все 26 MB
Детские отечественные фильмы Варвара-краса, длинная коса (1969) BDRip sergej644 1.37 GB
Фильмы (HD Rips | 720p, 1080p) Варвара-краса, длинная коса (Александр Роу) [1969, СССР, фэнтези, драма, мелодрама, комедия, семейный, Blu-ray disc 1080i] TorrentFilm 16.6 GB
R.G.TorrentFilm Video Варварская Мексика / México Bárbaro (Исак Эзбан / Isaac Ezban, Лоретт Флорес Борн / Laurette Flores Born и др.) [2014 г., Ужасы, DVDRip] VО (datynet) Один 777 745 MB
Зарубежные сериалы Восстание варваров / Barbarians Rising [S01] (2016) WEB-DL 1080p | BaibaKo Russian Mafia 14.13 GB
Зарубежные сериалы Восстание варваров / Barbarians Rising [S01] (2016) WEB-DL 720p | BaibaKo Russian Mafia 11.5 GB
Зарубежные сериалы Восстание варваров / Barbarians Rising [S01] (2016) WEB-DLRip | BaibaKo Russian Mafia 4.47 GB
Показать сообщения:    

Текущее время: Сегодня 13:52

Часовой пояс: GMT



Вы не можете начинать темы
Вы не можете отвечать на сообщения
Вы не можете редактировать свои сообщения
Вы не можете удалять свои сообщения
Вы не можете голосовать в опросах
Вы не можете прикреплять файлы к сообщениям
Вы не можете скачивать файлы