Варвара-краса, длинная коса (1969) BDRip

 
Автор Сообщение

sergej644 ®

Пол:

Стаж: 4 года 11 месяцев

Сообщений: 6046

Откуда: Soviet Union



Награды: Нет

Торрент-статистика

Создавать темы 17-Ноя-2014 21:23

[Цитировать]

-Варвара-краса, длинная коса (1969) BDRip- Год выпуска: 1969
Жанр: Сказка, Семейный, Детский
Описание фильма:
Жил да был царь Еремей. Отправился он в годовой поход, чтобы составить опись своего царства-государства. Наклонился он как-то к колодцу напиться, но тут его и схватил подводный царь Чудо — Юдо. Да потребовал выкуп за освобождение — такой, о чем Еремей не ведал и не гадал, что оно есть в его царстве. Царь согласился, еще не зная, что в его отсутствие царица родила ему сына.
Фильм рассказывает о том, как несмотря на всевозможные коварства и интриги, Андрей рыбацкий сын и Варвара повстречались и полюбили друг друга, как царю Еремею пришлось краснеть за своего ленивого и глупого наследника, и как в конце концов все закончилось хорошо.
Режиссер: Александр Роу
Актеры: Михаил Пуговкин, Георгий Милляр, Анатолий Кубацкий, Сергей Николаев, Алексей Катышев, Татьяна Клюева, Варвара Попова, Лидия Королева, Александр Хвыля, Борис Сичкин
Продолжительность: 01:20:24
Качество видео: BDRip

Видеокодек: Xvid
Битрейт видео: ~1978 Кбит/сек
Размер кадра: 704x304
Аудиокодек: AC3 5.1
Битрейт аудио: 448 Кбит/сек

MediaInfo:

Общее
Полное имя : D:\ФИЛЬМЫ\Варвара-краса, длинная коса_1969_BDRip.avi
Формат : AVI
Формат/Информация : Audio Video Interleave
Размер файла : 1,37 Гбайт
Продолжительность : 1 ч. 20 м.
Общий поток : 2435 Кбит/сек
Название фильма : Варвара-Краса, длинная коса [1969]
Режиссёр : 0ptimus
Жанр : Сказка, детский, семейный
Программа кодирования : VirtualDubMod 1.5.10.3 | www.virtualdub-fr.org || (build 2550/release)
Примечание : 24.08.2012
Видео
Идентификатор : 0
Формат : MPEG-4 Visual
Профиль формата : Advanced Simple@L5
Параметр BVOP формата : 1
Параметр QPel формата : Нет
Параметр GMC формата : Без точки перехода
Параметр матрицы формата : Выборочная
Идентификатор кодека : XVID
Идентификатор кодека/Подсказка : XviD
Продолжительность : 1 ч. 20 м.
Битрейт : 1978 Кбит/сек
Ширина : 704 пикселя
Высота : 304 пикселя
Соотношение сторон : 2,35:1
Частота кадров : 25,000 кадров/сек
Цветовое пространство : YUV
Субдискретизация насыщенности : 4:2:0
Битовая глубина : 8 бит
Тип развёртки : Прогрессивная
Метод сжатия : С потерями
Бит/(Пиксели*Кадры) : 0.370
Размер потока : 1,11 Гбайт (81%)
Библиотека кодирования : XviD 64
Аудио
Идентификатор : 1
Формат : AC-3
Формат/Информация : Audio Coding 3
Расширение режима : CM (complete main)
Параметр Endianness формата : Big
Идентификатор кодека : 2000
Продолжительность : 1 ч. 20 м.
Вид битрейта : Постоянный
Битрейт : 448 Кбит/сек
Каналы : 6 каналов
Расположение каналов : Front: L C R, Side: L R, LFE
Частота : 48,0 КГц
Битовая глубина : 16 бит
Метод сжатия : С потерями
Размер потока : 258 Мбайт (18%)
Выравнивание : Разделение по промежуткам
Продолжительность промежутка : 40 мс. (1,00 видеокадр)
Время предзагрузки промежутка : 500 мс.
Скриншоты:
Время раздачи: с 7:00 до 22:00--
[Профиль] [ЛС]
Кто просматривает тему:

Форум Тема Автор Размер
Фильмы 2011 года 2019: Новые варвары / I nuovi barbari (Энцо Дж. Кастеллари) [1983 г., фантастика, боевик, триллер, BDRip] [MVO] Bathory 1.46 GB
Научная и техническая литература Варвара Ахрименко - Дизайн малогабаритной квартиры. Правила увеличения пространства (2015) PDF достали все 26 MB
Детские отечественные фильмы Варвара-Краса, длинная коса (1969) BDRip [1080p] sergej644 4.8 GB
Фильмы (HD Rips | 720p, 1080p) Варвара-краса, длинная коса (Александр Роу) [1969, СССР, фэнтези, драма, мелодрама, комедия, семейный, Blu-ray disc 1080i] TorrentFilm 16.6 GB
R.G.TorrentFilm Video Варварская Мексика / México Bárbaro (Исак Эзбан / Isaac Ezban, Лоретт Флорес Борн / Laurette Flores Born и др.) [2014 г., Ужасы, DVDRip] VО (datynet) Один 777 745 MB
Зарубежные сериалы Восстание варваров / Barbarians Rising [S01] (2016) WEB-DL 1080p | BaibaKo Russian Mafia 14.13 GB
Зарубежные сериалы Восстание варваров / Barbarians Rising [S01] (2016) WEB-DL 720p | BaibaKo Russian Mafia 11.5 GB
Зарубежные сериалы Восстание варваров / Barbarians Rising [S01] (2016) WEB-DLRip | BaibaKo Russian Mafia 4.47 GB
Показать сообщения:    

Текущее время: Сегодня 08:17

Часовой пояс: GMT



Вы не можете начинать темы
Вы не можете отвечать на сообщения
Вы не можете редактировать свои сообщения
Вы не можете удалять свои сообщения
Вы не можете голосовать в опросах
Вы не можете прикреплять файлы к сообщениям
Вы не можете скачивать файлы