Ван Хельсинг / Van Helsing (2004) BDRip-AVC

 
Автор Сообщение

Russian Mafia ®

Пол:

Стаж: 1 год 8 месяцев

Сообщений: 4256



Награды: 10 (Подробнее)

Top Releaser 4 (Количество: 1) Top Releaser 3 (Количество: 1) Mega Seeder 1 (Количество: 1)
Торрент-статистика

Создавать темы 27-Сен-2015 14:57

[Цитировать]

Информация о фильме
Название: Ван Хельсинг
Оригинальное название: Van Helsing
Год выхода: 2004
Жанр: Фэнтези, боевик, приключения, ужасы, триллер
Режиссер: Стивен Соммерс
В ролях: Хью Джекман, Кейт Бекинсейл, Ричард Роксбург, Дэвид Уэнэм, Шулер Хенсли, Елена Анайя, Уилл Кемп, Кевин Дж. О’Коннор, Алан Армстронг, Сильвия Коллока, Джози Мэран, Том Фишер, Сэмьюэл Уэст, Робби Колтрейн, Стивен Фишер, Дэна Маравкова, Зузана Дурдинова, Ярослав Визнер, Марек Вашут, Саманта Соммерс, Дорел Моис, Марианна Моис, Лоуренс Расин, Патрис Войцеховский, Каси Борроумэн, Райан Джеймс, Мартин Клеббэ, Эллисон Квил
О фильме:
Глубоко в Карпатах лежит таинственная страна Трансильвания — мир, в котором зло встречается на каждом шагу, мир, в котором опасность оживает с заходом солнца, и где монстры, живущие в глубине человеческих кошмаров, обретают форму. В этот мир попадает легендарный охотник на чудовищ Ван Хельсинг, рождённый на страницах романа «Дракула» Брэма Стокера. В своей непрерывной битве против сил зла и за освобождение мира от порождений ада, Ван Хельсинг, по заданию секретного общества, отправляется в Трансильванию, чтобы скрестить оружие со смертельно опасным, наделённым неведомой силой графом Дракулой. На помощь ему внезапно приходит бесстрашная Анна Валери, поставившая целью избавить свою семью от векового проклятья, наложенного убитым вампиром.

Страна: США, Чехия, Carpathian Pictures, Stillking Films, The Sommers Company, Universal Pictures
Продолжительность: 02:11:37
Перевод: Дублированный, авторский одноголосый
Субтитры: Русские, английские
Дата релиза: 16.05.2013
Файл
Кодек: H.264
Качество: BDRip (AVC)
Видео: MPEG-4 AVC, 1899 Кбит/с, 1024x554
Звук:
Аудио №1: Русский (AC3, 6 ch, 448 Кбит/с) - Дублированный
Аудио №2: Русский (AC3, 6 ch, 448 Кбит/с) - Авторский одноголосый (Гаврилов)
Аудио №3: Русский (AC3, 6 ch, 448 Кбит/с) - Авторский одноголосый (Сербин)
Аудио №4: Английский (AC3, 6 ch, 448 Кбит/с)

MediaInfo

Общее
Уникальный идентификатор : 186552283624408610979836434201154763210 (0x8C58A9B54BC477F7AF766F51E27D39CA)
Полное имя : D:3Van.Helsing.2004.x264.BDRip.(AVC).ExKinoRay.mkv
Формат : Matroska
Размер файла : 3,39 Гбайт
Продолжительность : 2 ч. 11 м.
Общий поток : 3691 Кбит/сек
Название фильма : Van.Helsing.2004.x264.BDRip.(AVC).ExKinoRay
Дата кодирования : UTC 2013-05-15 20:28:18
Программа кодирования : mkvmerge v4.0.0 ('The Stars were mine') сборка от Jun 6 2010 16:18:42
Библиотека кодирования : libebml v1.0.0 + libmatroska v1.0.0
Видео
Идентификатор : 1
Формат : AVC
Формат/Информация : Advanced Video Codec
Профиль формата : High@L4.1
Параметр CABAC формата : Да
Параметр ReFrames формата : 8 кадров
Идентификатор кодека : V_MPEG4/ISO/AVC
Продолжительность : 2 ч. 11 м.
Битрейт : 1899 Кбит/сек
Ширина : 1024 пикс.
Высота : 554 пикс.
Соотношение сторон : 16:9
Частота кадров : 23,976 кадр/сек
Цветовое пространство : YUV
Подвыборка цветности : 4:2:0
Битовая глубина : 8 бит
Тип развёртки : Прогрессивная
Бит/(Пиксели*Кадры) : 0.140
Размер потока : 1,68 Гбайт (49%)
Заголовок : Rip by Enigma-Vladislav71
Библиотека кодирования : x264 core 129 r2245 bc13772
Настройки программы : cabac=1 / ref=8 / deblock=1:-2:-2 / analyse=0x3:0x133 / me=umh / subme=11 / psy=1 / psy_rd=1.00:0.00 / mixed_ref=1 / me_range=48 / chroma_me=1 / trellis=2 / 8x8dct=1 / cqm=0 / deadzone=21,11 / fast_pskip=0 / chroma_qp_offset=-2 / threads=3 / lookahead_threads=1 / sliced_threads=0 / nr=0 / decimate=0 / interlaced=0 / bluray_compat=0 / constrained_intra=0 / bframes=8 / b_pyramid=2 / b_adapt=2 / b_bias=0 / direct=3 / weightb=1 / open_gop=0 / weightp=2 / keyint=240 / keyint_min=23 / scenecut=40 / intra_refresh=0 / rc_lookahead=40 / rc=2pass / mbtree=1 / bitrate=1899 / ratetol=1.0 / qcomp=0.60 / qpmin=10 / qpmax=51 / qpstep=4 / cplxblur=20.0 / qblur=0.5 / ip_ratio=1.40 / aq=2:1.00
Язык : English
Аудио #1
Идентификатор : 2
Формат : AC-3
Формат/Информация : Audio Coding 3
Расширение режима : CM (complete main)
Идентификатор кодека : A_AC3
Продолжительность : 2 ч. 11 м.
Вид битрейта : Постоянный
Битрейт : 448 Кбит/сек
Каналы : 6 каналов
Расположение каналов : Front: L C R, Side: L R, LFE
Частота : 48,0 КГц
Битовая глубина : 16 бит
Метод сжатия : С потерями
Размер потока : 422 Мбайт (12%)
Заголовок : Дублированный
Язык : Russian
Аудио #2
Идентификатор : 3
Формат : AC-3
Формат/Информация : Audio Coding 3
Расширение режима : CM (complete main)
Идентификатор кодека : A_AC3
Продолжительность : 2 ч. 11 м.
Вид битрейта : Постоянный
Битрейт : 448 Кбит/сек
Каналы : 6 каналов
Расположение каналов : Front: L C R, Side: L R, LFE
Частота : 48,0 КГц
Битовая глубина : 16 бит
Метод сжатия : С потерями
Размер потока : 422 Мбайт (12%)
Заголовок : Гаврилов
Язык : Russian
Аудио #3
Идентификатор : 4
Формат : AC-3
Формат/Информация : Audio Coding 3
Расширение режима : CM (complete main)
Идентификатор кодека : A_AC3
Продолжительность : 2 ч. 11 м.
Вид битрейта : Постоянный
Битрейт : 448 Кбит/сек
Каналы : 6 каналов
Расположение каналов : Front: L C R, Side: L R, LFE
Частота : 48,0 КГц
Битовая глубина : 16 бит
Метод сжатия : С потерями
Размер потока : 422 Мбайт (12%)
Заголовок : Сербин
Язык : Russian
Аудио #4
Идентификатор : 5
Формат : AC-3
Формат/Информация : Audio Coding 3
Расширение режима : CM (complete main)
Идентификатор кодека : A_AC3
Продолжительность : 2 ч. 11 м.
Вид битрейта : Постоянный
Битрейт : 448 Кбит/сек
Каналы : 6 каналов
Расположение каналов : Front: L C R, Side: L R, LFE
Частота : 48,0 КГц
Битовая глубина : 16 бит
Метод сжатия : С потерями
Размер потока : 422 Мбайт (12%)
Заголовок : Английский
Язык : English
Текст #1
Идентификатор : 6
Формат : UTF-8
Идентификатор кодека : S_TEXT/UTF8
Идентификатор кодека/Информация : UTF-8 Plain Text
Язык : Russian
Текст #2
Идентификатор : 7
Формат : UTF-8
Идентификатор кодека : S_TEXT/UTF8
Идентификатор кодека/Информация : UTF-8 Plain Text
Язык : English
Меню
00:00:00.000 : en:Chapter 01
00:07:49.218 : en:Chapter 02
00:13:42.613 : en:Chapter 03
00:20:14.503 : en:Chapter 04
00:23:12.724 : en:Chapter 05
00:33:58.036 : en:Chapter 06
00:38:22.257 : en:Chapter 07
00:40:34.265 : en:Chapter 08
00:48:41.793 : en:Chapter 09
00:53:18.862 : en:Chapter 10
01:02:07.055 : en:Chapter 11
01:04:31.784 : en:Chapter 12
01:08:42.952 : en:Chapter 13
01:09:54.982 : en:Chapter 14
01:14:17.703 : en:Chapter 15
01:18:55.313 : en:Chapter 16
01:23:57.866 : en:Chapter 17
01:29:19.103 : en:Chapter 18
01:31:11.340 : en:Chapter 19
01:37:30.970 : en:Chapter 20
01:40:34.528 : en:Chapter 21
01:43:46.345 : en:Chapter 22
01:45:56.808 : en:Chapter 23
01:50:21.197 : en:Chapter 24
01:55:16.075 : en:Chapter 25
01:57:08.396 : en:Chapter 26
01:58:42.240 : en:Chapter 27
02:02:01.188 : en:Chapter 28
Семпл

Скриншоты

[Профиль] [ЛС]
Кто просматривает тему:

Показать сообщения:    

Текущее время: Сегодня 20:35

Часовой пояс: GMT



Вы не можете начинать темы
Вы не можете отвечать на сообщения
Вы не можете редактировать свои сообщения
Вы не можете удалять свои сообщения
Вы не можете голосовать в опросах
Вы не можете прикреплять файлы к сообщениям
Вы не можете скачивать файлы