Ван Хельсинг / Van Helsing (2004) BDRip 720p

 
Автор Сообщение

Russian Mafia ®

Пол:

Стаж: 1 год 8 месяцев

Сообщений: 4256



Награды: 10 (Подробнее)

Mega Seeder 5 (Количество: 1) Top Releaser 4 (Количество: 1) Mega Seeder 3 (Количество: 1)
Торрент-статистика

Создавать темы 27-Сен-2015 14:55

[Цитировать]

Информация о фильме
Название: Ван Хельсинг
Оригинальное название: Van Helsing
Год выхода: 2004
Жанр: Фэнтези, боевик, триллер, детектив, приключения
Режиссер: Стивен Соммерс
В ролях: Хью Джекман, Кейт Бекинсейл, Ричард Роксбург, Дэвид Уэнэм, Шулер Хенсли, Елена Анайя, Уилл Кемп, Кевин Дж. О’Коннор, Алан Армстронг, Сильвия Коллока, Джози Мэран, Том Фишер, Сэмьюэл Уэст, Робби Колтрейн, Стивен Фишер, Дэна Маравкова, Зузана Дурдинова, Ярослав Визнер, Марек Вашут, Саманта Соммерс, Дорел Моис, Марианна Моис, Лоуренс Расин, Патрис Войцеховский, Каси Борроумэн, Райан Джеймс, Мартин Клеббэ, Эллисон Квил
О фильме:
Глубоко в Карпатах лежит таинственная страна Трансильвания — мир, в котором зло встречается на каждом шагу, мир, в котором опасность оживает с заходом солнца, и где монстры, живущие в глубине человеческих кошмаров, обретают форму. В этот мир попадает легендарный охотник на чудовищ Ван Хельсинг, рождённый на страницах романа «Дракула» Брэма Стокера. В своей непрерывной битве против сил зла и за освобождение мира от порождений ада, Ван Хельсинг, по заданию секретного общества, отправляется в Трансильванию, чтобы скрестить оружие со смертельно опасным, наделённым неведомой силой графом Дракулой. На помощь ему внезапно приходит бесстрашная Анна Валери, поставившая целью избавить свою семью от векового проклятья, наложенного убитым вампиром.
Страна: США, Чехия
Студия: Carpathian Pictures, Stillking Films, The Sommers Company, Universal Pictures
Продолжительность: 02:11:37
Перевод: Дублированный, профессиональный двухголосый, авторский
Файл
Кодек: x264
Качество: BDRip 720p
Видео: MPEG-4 AVC, 5000 Кбит/с, 1280x694, 23.976 кадр/с
Аудио #1: Русский (AC3, 6 ch, 448 Кбит/с) / Дублированный (МОСФИЛЬМ-мастер)
Аудио #2: Русский (AC3, 6 ch, 448 Кбит/с) / Профессиональный двухголосый (Tycoon-studio)
Аудио #3: Русский (AC3, 6 ch, 640 Кбит/с) / Авторский одноголосый (Андрей Гаврилов)
Аудио #4: Русский (AC3, 6 ch, 640 Кбит/с) / Авторский одноголосый (Юрий Живов)
Аудио #5: Русский (AC3, 6 ch, 640 Кбит/с) / Авторский одноголосый (Евгений Рудой)
Аудио #6: Украинский (AC3, 6 ch, 448 Кбит/с) / Профессиональный многоголосый (Так Треба Продакшн)
Аудио #7: Украинский (AC3, 6 ch, 448 Кбит/с) / Профессиональный двухголосый (Новый канал)
Аудио #8: Английский (AC3, 6 ch, 640 Кбит/с)
Субтитры: Русский (2 вида), украинские, английский (2 вида)
Семпл

log x264

raw [info]: 1280x694p 1:1 @ 24000/1001 fps (cfr)
x264 [info]: using SAR=1/1
x264 [info]: using cpu capabilities: MMX2 SSE2Fast SSSE3 SSE4.2 AVX AVX2 FMA3 LZCNT BMI2
x264 [info]: profile High, level 4.1
x264 [info]: frame I:1360 Avg QP:16.45 size:108629
x264 [info]: frame P:50538 Avg QP:19.00 size: 43681
x264 [info]: frame B:137463 Avg QP:20.96 size: 18744
x264 [info]: consecutive B-frames: 4.7% 6.9% 11.1% 28.9% 15.7% 25.3% 3.7% 2.2% 0.7% 0.5% 0.3%
x264 [info]: mb I I16..4: 4.5% 83.9% 11.5%
x264 [info]: mb P I16..4: 1.3% 18.2% 1.3% P16..4: 30.9% 34.5% 10.0% 1.0% 0.1% skip: 2.7%
x264 [info]: mb B I16..4: 0.1% 2.7% 0.2% B16..8: 37.3% 22.9% 3.6% direct: 7.2% skip:26.0% L0:44.9% L1:44.8% BI:10.3%
x264 [info]: 8x8 transform intra:87.4% inter:65.6%
x264 [info]: direct mvs spatial:98.2% temporal:1.8%
x264 [info]: coded y,uvDC,uvAC intra: 87.3% 78.4% 58.2% inter: 33.8% 31.7% 13.9%
x264 [info]: i16 v,h,dc,p: 46% 10% 6% 38%
x264 [info]: i8 v,h,dc,ddl,ddr,vr,hd,vl,hu: 10% 6% 7% 10% 15% 14% 13% 12% 14%
x264 [info]: i4 v,h,dc,ddl,ddr,vr,hd,vl,hu: 13% 5% 5% 9% 15% 15% 13% 11% 12%
x264 [info]: i8c dc,h,v,p: 46% 23% 16% 15%
x264 [info]: Weighted P-Frames: Y:20.5% UV:13.7%
x264 [info]: ref P L0: 45.2% 8.2% 19.7% 8.1% 6.3% 4.7% 4.1% 2.6% 1.0% 0.2%
x264 [info]: ref B L0: 70.6% 14.0% 6.9% 3.7% 2.7% 1.6% 0.6%
x264 [info]: ref B L1: 92.1% 7.9%
x264 [info]: kb/s:4995.64
encoded 189361 frames, 6.99 fps, 4995.64 kb/s

Инфо-файл

General
Unique ID : 196695728173488367346591633877777307645 (0x93FA3822E175EE5B9F82C60AA688D7FD)
Complete name : Van.Helsingp.2004.BDRip.720p.MediaClub.mkv
Format : Matroska
Format version : Version 4 / Version 2
File size : 8.60 GiB
Duration : 2h 11mn
Overall bit rate : 9 350 Kbps
Movie name : release MediaClub - MINION
Encoded date : UTC 2014-09-07 06:50:51
Writing application : mkvmerge v6.9.1 ('Blue Panther') 64bit built on Apr 18 2014 18:23:38
Writing library : libebml v1.3.0 + libmatroska v1.4.1
Video
ID : 1
Format : AVC
Format/Info : Advanced Video Codec
Format profile : High@L4.1
Format settings, CABAC : Yes
Format settings, ReFrames : 8 frames
Codec ID : V_MPEG4/ISO/AVC
Duration : 2h 11mn
Bit rate : 5 000 Kbps
Width : 1 280 pixels
Height : 694 pixels
Display aspect ratio : 1.85:1
Frame rate mode : Constant
Frame rate : 23.976 fps
Color space : YUV
Chroma subsampling : 4:2:0
Bit depth : 8 bits
Scan type : Progressive
Bits/(Pixel*Frame) : 0.235
Stream size : 4.42 GiB (51%)
Title : Van Helsing 2004 BDRip 720p - [MediaClub - MINION]
Writing library : x264 core 142 r2431 ac76440
Encoding settings : cabac=1 / ref=8 / deblock=1:-3:-3 / analyse=0x3:0x133 / me=umh / subme=11 / psy=1 / psy_rd=1.00:0.10 / mixed_ref=1 / me_range=48 / chroma_me=1 / trellis=2 / 8x8dct=1 / cqm=0 / deadzone=21,11 / fast_pskip=0 / chroma_qp_offset=-3 / threads=6 / lookahead_threads=1 / sliced_threads=0 / nr=0 / decimate=0 / interlaced=0 / bluray_compat=0 / constrained_intra=0 / bframes=10 / b_pyramid=2 / b_adapt=2 / b_bias=0 / direct=3 / weightb=1 / open_gop=0 / weightp=2 / keyint=240 / keyint_min=23 / scenecut=40 / intra_refresh=0 / rc=2pass / mbtree=0 / bitrate=5000 / ratetol=1.0 / qcomp=0.60 / qpmin=10 / qpmax=51 / qpstep=4 / cplxblur=20.0 / qblur=0.5 / ip_ratio=1.40 / pb_ratio=1.30 / aq=1:1.00
Language : English
Default : Yes
Forced : No
Audio #1
ID : 2
Format : AC-3
Format/Info : Audio Coding 3
Mode extension : CM (complete main)
Format settings, Endianness : Big
Codec ID : A_AC3
Duration : 2h 11mn
Bit rate mode : Constant
Bit rate : 448 Kbps
Channel(s) : 6 channels
Channel positions : Front: L C R, Side: L R, LFE
Sampling rate : 48.0 KHz
Bit depth : 16 bits
Compression mode : Lossy
Stream size : 422 MiB (5%)
Title : DUB - студия «МОСФИЛЬМ-мастер»
Language : Russian
Default : Yes
Forced : No
Audio #2
ID : 3
Format : AC-3
Format/Info : Audio Coding 3
Mode extension : CM (complete main)
Format settings, Endianness : Big
Codec ID : A_AC3
Duration : 2h 11mn
Bit rate mode : Constant
Bit rate : 448 Kbps
Channel(s) : 6 channels
Channel positions : Front: L C R, Side: L R, LFE
Sampling rate : 48.0 KHz
Bit depth : 16 bits
Compression mode : Lossy
Stream size : 422 MiB (5%)
Title : DVO - Tycoon-studio
Language : Russian
Default : No
Forced : No
Audio #3
ID : 4
Format : AC-3
Format/Info : Audio Coding 3
Mode extension : CM (complete main)
Format settings, Endianness : Big
Codec ID : A_AC3
Duration : 2h 11mn
Bit rate mode : Constant
Bit rate : 640 Kbps
Channel(s) : 6 channels
Channel positions : Front: L C R, Side: L R, LFE
Sampling rate : 48.0 KHz
Bit depth : 16 bits
Compression mode : Lossy
Stream size : 603 MiB (7%)
Title : AVO - Андрей Гаврилов
Language : Russian
Default : No
Forced : No
Audio #4
ID : 5
Format : AC-3
Format/Info : Audio Coding 3
Mode extension : CM (complete main)
Format settings, Endianness : Big
Codec ID : A_AC3
Duration : 2h 11mn
Bit rate mode : Constant
Bit rate : 640 Kbps
Channel(s) : 6 channels
Channel positions : Front: L C R, Side: L R, LFE
Sampling rate : 48.0 KHz
Bit depth : 16 bits
Compression mode : Lossy
Stream size : 603 MiB (7%)
Title : AVO - Юрий Живов
Language : Russian
Default : No
Forced : No
Audio #5
ID : 6
Format : AC-3
Format/Info : Audio Coding 3
Mode extension : CM (complete main)
Format settings, Endianness : Big
Codec ID : A_AC3
Duration : 2h 11mn
Bit rate mode : Constant
Bit rate : 640 Kbps
Channel(s) : 6 channels
Channel positions : Front: L C R, Side: L R, LFE
Sampling rate : 48.0 KHz
Bit depth : 16 bits
Compression mode : Lossy
Stream size : 603 MiB (7%)
Title : AVO - Евгений Рудой
Language : Russian
Default : No
Forced : No
Audio #6
ID : 7
Format : AC-3
Format/Info : Audio Coding 3
Mode extension : CM (complete main)
Format settings, Endianness : Big
Codec ID : A_AC3
Duration : 2h 11mn
Bit rate mode : Constant
Bit rate : 448 Kbps
Channel(s) : 6 channels
Channel positions : Front: L C R, Side: L R, LFE
Sampling rate : 48.0 KHz
Bit depth : 16 bits
Compression mode : Lossy
Stream size : 422 MiB (5%)
Title : MVO - Так Треба Продакшн
Language : Ukrainian
Default : No
Forced : No
Audio #7
ID : 8
Format : AC-3
Format/Info : Audio Coding 3
Mode extension : CM (complete main)
Format settings, Endianness : Big
Codec ID : A_AC3
Duration : 2h 11mn
Bit rate mode : Constant
Bit rate : 448 Kbps
Channel(s) : 6 channels
Channel positions : Front: L C R, Side: L R, LFE
Sampling rate : 48.0 KHz
Bit depth : 16 bits
Compression mode : Lossy
Stream size : 422 MiB (5%)
Title : DVO - Новый канал
Language : Ukrainian
Default : No
Forced : No
Audio #8
ID : 9
Format : AC-3
Format/Info : Audio Coding 3
Mode extension : CM (complete main)
Format settings, Endianness : Big
Codec ID : A_AC3
Duration : 2h 11mn
Bit rate mode : Constant
Bit rate : 640 Kbps
Channel(s) : 6 channels
Channel positions : Front: L C R, Side: L R, LFE
Sampling rate : 48.0 KHz
Bit depth : 16 bits
Compression mode : Lossy
Stream size : 603 MiB (7%)
Language : English
Default : No
Forced : No
Text #1
ID : 10
Format : UTF-8
Codec ID : S_TEXT/UTF8
Codec ID/Info : UTF-8 Plain Text
Title : Full
Language : Russian
Default : No
Forced : No
Text #2
ID : 11
Format : UTF-8
Codec ID : S_TEXT/UTF8
Codec ID/Info : UTF-8 Plain Text
Title : Full - [Ганс]
Language : Russian
Default : No
Forced : No
Text #3
ID : 12
Format : UTF-8
Codec ID : S_TEXT/UTF8
Codec ID/Info : UTF-8 Plain Text
Title : Full
Language : Ukrainian
Default : No
Forced : No
Text #4
ID : 13
Format : UTF-8
Codec ID : S_TEXT/UTF8
Codec ID/Info : UTF-8 Plain Text
Title : Full
Language : English
Default : No
Forced : No
Text #5
ID : 14
Format : UTF-8
Codec ID : S_TEXT/UTF8
Codec ID/Info : UTF-8 Plain Text
Title : SDH
Language : English
Default : No
Forced : No
Menu
00:00:00.000 : :It's Alive
00:07:49.218 : :The Vatican's Avenger
00:13:42.613 : :The Order
00:20:14.503 : :Werewolf Hunters
00:23:12.724 : :Welcome to Transylvania
00:33:58.036 : :His Name Is Van Helsing
00:38:22.257 : :Looking for Answers
00:40:34.265 : :Curse of the Werewolf
00:48:41.793 : :Castle Frankenstein
00:53:18.862 : :Dracula's Children
01:02:07.055 : :Old Acquaintances
01:04:31.784 : :Failure
01:08:42.952 : :The Living Painting
01:09:54.982 : :The Frankenstein Monster
01:14:17.703 : :Hell on Wheels
01:18:55.313 : :Mark of the Wolf
01:23:57.866 : :The Monster's Ball
01:29:19.103 : :Van Helsing's Vow
01:31:11.340 : :The Door to Dracula
01:37:30.970 : :The Cure
01:40:34.528 : :Life for My Children
01:43:46.345 : :You Can Go When You're Dead
01:45:56.808 : :The Spawning
01:50:21.197 : :The Only Way
01:55:16.075 : :The Left Hand of God
01:57:08.396 : :Sacrifice
01:58:42.240 : :Reunion
02:02:01.188 : :End Titles

Скриншоты


[Профиль] [ЛС]
Кто просматривает тему:

Показать сообщения:    

Текущее время: Сегодня 08:11

Часовой пояс: GMT



Вы не можете начинать темы
Вы не можете отвечать на сообщения
Вы не можете редактировать свои сообщения
Вы не можете удалять свои сообщения
Вы не можете голосовать в опросах
Вы не можете прикреплять файлы к сообщениям
Вы не можете скачивать файлы