Ванька Жуков (Леонид Зарубин) [1981 г., мультфильм, DVB]

 
Автор Сообщение

TorrentFilm ®

Пол:

Стаж: 2 года

Сообщений: 7741



Награды: Нет

Торрент-статистика

Создавать темы 21-Дек-2014 02:15

[Цитировать]

Ванька Жуков
Жанр: мультфильм, экранизация
Студия: Киевнаучфильм
Год выпуска: 1981
Продолжительность: 00:09:52
Режиссёр: Леонид Зарубин
Фильм озвучивала: Клара Румянова
Описание: По рассказу Антона Чехова. О мальчике Иване, у которого кроме дедушки нет никого. Отдал дедушка его на ученье к сапожнику где ему приходится ой как не сладко: и смеются над ним, и селедкой в «морду» ткнут, и бьют. А в рождественскую ночь он даже спать не ложился, письмо писал с просьбой забрать его, а то может не выдержать и умереть. А утром отнес письмо в почтовый ящик, а на конверте написал: «На деревню дедушке…»

Релиз группы:
Качество видео: DVB (Канал "ПлюсПлюс")
Формат видео: MPG
Видео: 720x576 (4:3) @ 768x576, 25.000 fps, MPEG-2 Video, ~4000 Kbps, 0.386 bits/pixel
Аудио: 48.0 KHz, MPEG-1 Audio layer 2, 2 ch, 192 Kbps

MediaInfo

GeneralComplete name : Ванька Жуков 1981 ПлюсПлюс.mpgFormat : MPEG-PSFile size : 302 MiBDuration : 9mn 52sOverall bit rate mode : VariableOverall bit rate : 4 277 Kbps
VideoID : 224 (0xE0)Format : MPEG VideoFormat version : Version 2Format profile : Main@MainFormat settings, BVOP : YesFormat settings, Matrix : CustomFormat settings, GOP : VariableFormat settings, picture structure : FrameDuration : 9mn 52sBit rate mode : VariableBit rate : 4 000 KbpsMaximum bit rate : 15.0 MbpsWidth : 720 pixelsHeight : 576 pixelsDisplay aspect ratio : 4:3Frame rate : 25.000 fpsStandard : PALColor space : YUVChroma subsampling : 4:2:0Bit depth : 8 bitsScan type : InterlacedScan order : Top Field FirstCompression mode : LossyBits/(Pixel*Frame) : 0.386Time code of first frame : 00:00:00:00Time code source : Group of pictures headerGOP, Open/Closed : OpenStream size : 282 MiB (94%)GOP, Open/Closed of first frame : Closed
AudioID : 192 (0xC0)Format : MPEG AudioFormat version : Version 1Format profile : Layer 2Duration : 9mn 52sBit rate mode : ConstantBit rate : 192 KbpsChannel(s) : 2 channelsSampling rate : 48.0 KHzCompression mode : LossyStream size : 13.6 MiB (4%)
[Профиль] [ЛС]
Показать сообщения:    

Текущее время: Сегодня 04:28

Часовой пояс: GMT



Вы не можете начинать темы
Вы не можете отвечать на сообщения
Вы не можете редактировать свои сообщения
Вы не можете удалять свои сообщения
Вы не можете голосовать в опросах
Вы не можете прикреплять файлы к сообщениям
Вы не можете скачивать файлы