Ванильное небо / Vanilla Sky (2001) BDRip 720p

 
Автор Сообщение

sergej644 ®

Пол:

Стаж: 4 года 11 месяцев

Сообщений: 6043

Откуда: Soviet Union



Награды: Нет

Торрент-статистика

Создавать темы 18-Июл-2015 04:40

[Цитировать]

Информация о фильме
Название: Ванильное небо
Оригинальное название: Vanilla Sky
Год выхода: 2001
Жанр: фантастика, фэнтези, триллер, мелодрама, детектив
Режиссер: Кэмерон Кроу
В ролях: Том Круз, Пенелопа Крус, Кэмерон Диаз, Курт Рассел, Джейсон Ли, Ноа Тейлор, Тимоти Сполл, Тильда Суинтон, Майкл Шеннон, Дилэйна Митчелл
О фильме: У Дэвида было всё: деньги, свой собственный издательский дом, дорогая машина и квартира в респектабельном районе Нью-Йорка, друг-писатель и подружка Джулианна, даже враги, в лице семи управляющих его компанией, тоже были. Так он и жил без оглядки, пока в один прекрасный момент не попал в автокатастрофу и очнулся после комы инвалидом с изуродованным лицом, которое приходится прикрывать «эстетическим протезом». Его новая жизнь обернулась кошмарным сном, от которого нельзя проснуться…

Выпущено: Paramount Pictures
Продолжительность: 02:16:01
Перевод: Дублированный (лицензия)
Файл
Кодек: x264
Качество: BDRip (источник: Blu-ray Disc)
Видео: 1280x720 (16:9), 23.976 fps, 5160 kbps
Аудио #1: AC-3, 6 ch, 448 kbps (Rus)
Аудио #2: AC-3, 6 ch, 448 kbps (Eng)
Субтитры: Русские, Английские
Скачать: сэмплСкриншоты

MI

Общее
Уникальный идентификатор : 192652794767334042113890200706564989996 (0x90EF94212D201903A4F66F1C8CFFA42C)
Полное имя : Vanilla.Sky.2001.BDRip.720p.Rus.Eng.mkv
Формат : Matroska
Версия формата : Version 2
Размер файла : 5,76 Гбайт
Продолжительность : 2 ч. 16 м.
Общий поток : 6058 Кбит/сек
Название фильма : Ванильное небо / Vanilla Sky (2001)
Дата кодирования : UTC 2015-07-17 16:08:55
Программа кодирования : mkvmerge v5.8.0 ('No Sleep / Pillow') built on Sep 2 2012 15:37:04
Библиотека кодирования : libebml v1.2.3 + libmatroska v1.3.0
Видео
Идентификатор : 1
Формат : AVC
Формат/Информация : Advanced Video Codec
Профиль формата : High@L4.1
Параметр CABAC формата : Да
Параметр ReFrames формата : 8 кадров
Идентификатор кодека : V_MPEG4/ISO/AVC
Продолжительность : 2 ч. 16 м.
Битрейт : 5160 Кбит/сек
Ширина : 1280 пикселей
Высота : 720 пикселей
Соотношение сторон : 16:9
Режим частоты кадров : Постоянный
Частота кадров : 23,976 кадра/сек
Цветовое пространство : YUV
Субдискретизация насыщенности : 4:2:0
Битовая глубина : 8 бит
Тип развёртки : Прогрессивная
Бит/(Пиксели*Кадры) : 0.234
Размер потока : 4,79 Гбайт (83%)
Заголовок : Release by AlexKa
Библиотека кодирования : x264 core 146 r2538 121396c
Настройки программы : cabac=1 / ref=8 / deblock=1:-3:-3 / analyse=0x3:0x133 / me=umh / subme=11 / psy=1 / psy_rd=1.00:0.20 / mixed_ref=1 / me_range=32 / chroma_me=1 / trellis=2 / 8x8dct=1 / cqm=0 / deadzone=21,11 / fast_pskip=0 / chroma_qp_offset=-3 / threads=12 / lookahead_threads=3 / sliced_threads=0 / nr=0 / decimate=0 / interlaced=0 / bluray_compat=0 / constrained_intra=0 / bframes=12 / b_pyramid=2 / b_adapt=2 / b_bias=0 / direct=3 / weightb=1 / open_gop=0 / weightp=2 / keyint=240 / keyint_min=23 / scenecut=40 / intra_refresh=0 / rc=2pass / mbtree=0 / bitrate=5160 / ratetol=1.0 / qcomp=0.60 / qpmin=0 / qpmax=69 / qpstep=4 / cplxblur=20.0 / qblur=0.5 / ip_ratio=1.40 / pb_ratio=1.30 / aq=1:0.80
Язык : English
Аудио #1
Идентификатор : 2
Формат : AC-3
Формат/Информация : Audio Coding 3
Расширение режима : CM (complete main)
Параметр Endianness формата : Big
Идентификатор кодека : A_AC3
Продолжительность : 2 ч. 16 м.
Вид битрейта : Постоянный
Битрейт : 448 Кбит/сек
Каналы : 6 каналов
Расположение каналов : Front: L C R, Side: L R, LFE
Частота : 48,0 КГц
Метод сжатия : С потерями
Размер потока : 436 Мбайт (7%)
Заголовок : Rus
Язык : Russian
Аудио #2
Идентификатор : 3
Формат : AC-3
Формат/Информация : Audio Coding 3
Расширение режима : CM (complete main)
Параметр Endianness формата : Big
Идентификатор кодека : A_AC3
Продолжительность : 2 ч. 16 м.
Вид битрейта : Постоянный
Битрейт : 448 Кбит/сек
Каналы : 6 каналов
Расположение каналов : Front: L C R, Side: L R, LFE
Частота : 48,0 КГц
Метод сжатия : С потерями
Размер потока : 436 Мбайт (7%)
Заголовок : Eng
Язык : English
Текст #1
Идентификатор : 4
Формат : UTF-8
Идентификатор кодека : S_TEXT/UTF8
Идентификатор кодека/Информация : UTF-8 Plain Text
Заголовок : Rus
Язык : Russian
Текст #2
Идентификатор : 5
Формат : UTF-8
Идентификатор кодека : S_TEXT/UTF8
Идентификатор кодека/Информация : UTF-8 Plain Text
Заголовок : Eng
Язык : English
Меню
00:00:00.000 : en:Everything in Its Right Place
00:06:24.300 : en:All the Right Friends
00:10:57.198 : en:Defending the Kingdom
00:15:10.701 : en:My Favorite Things
00:19:22.703 : en:Keep on Pushin'
00:22:46.865 : en:Directions
00:27:03.664 : en:Her Apartment
00:30:29.953 : en:Solsbury Hill
00:37:49.224 : en:Last Goodbye
00:43:36.113 : en:Lifestyle Mishap
00:51:42.766 : en:Helpful Unit
00:54:52.456 : en:This Is Me Smiling
00:59:03.331 : en:Rez
01:06:41.246 : en:Sweetness Follows
01:10:47.451 : en:The Splice
01:13:08.091 : en:Dig Deep, David
01:20:13.350 : en:Fourth Time Around
01:24:01.328 : en:I Am Sofia
01:28:58.040 : en:Revolution of the Mind
01:33:06.663 : en:Problems?
01:35:24.218 : en:Can We Still Be Friends
01:42:40.361 : en:Opening Act
01:45:59.686 : en:The Healing Room
01:52:34.038 : en:Good Vibrations
01:57:50.438 : en:Ladies and Gentlemen We Are Floating in Space
02:01:42.002 : en:Morality as Home Entertainment
02:06:18.946 : en:I'll Find You Again
02:09:20.460 : en:Where Do I Begin

x264

x264 [info]: frame I:1311 Avg QP:16.92 size:118345
x264 [info]: frame P:38043 Avg QP:19.93 size: 54638
x264 [info]: frame B:156326 Avg QP:22.02 size: 19383
x264 [info]: consecutive B-frames: 1.8% 2.5% 4.3% 14.7% 11.3% 37.0% 7.2% 15.1% 1.8% 1.0% 0.5% 2.1% 0.6%
[Профиль] [ЛС]
Кто просматривает тему:

Форум Тема Автор Размер
50/50 (Pop, Dance) VA - Ванильное небо. Суперсборник попмузыки - 2015, MP3, 256 kbps Magnat 674 MB
Показать сообщения:    

Текущее время: Сегодня 04:18

Часовой пояс: GMT



Вы не можете начинать темы
Вы не можете отвечать на сообщения
Вы не можете редактировать свои сообщения
Вы не можете удалять свои сообщения
Вы не можете голосовать в опросах
Вы не можете прикреплять файлы к сообщениям
Вы не можете скачивать файлы