Ванечка (Елена Николаева) [2007, Россия, мелодрама, DVD9]

 
Автор Сообщение

TorrentFilm ®

Пол:

Стаж: 1 год 11 месяцев

Сообщений: 7741



Награды: Нет

Торрент-статистика

Создавать темы 03-Янв-2016 00:03

[Цитировать]

Ванечка
Страна: Россия
Студия: "Глобал Экшн Групп", Фонд Михаила Калатозова, телеканал "Россия"
Жанр: мелодрама
Год выпуска: 2007
Продолжительность: 01:43:13
Cубтитры: нет
Режиссер: Елена Николаева
В ролях: Елена Великанова, Андрей Панин, Максим Галкин, Евдокия Германова, Сергей Баталов, Нина Русланова, Валерий Баринов, Алиса Гребенщикова, Сергей Юшкевич, Василий Мищенко, Иван Рудаков, Армен Джигарханян, Ольга Дроздова, Михаил Солодко, Алексей Агрызков, Эдуард Черношкур, Илюша Глушков, Миша Хороненко, Татьяна Миткова, Юлия Яновская, Борис Тенин, Екатерина Хлыстова, Ксения Радченко, Нестан Бадуашвили, Максим Костромыкин, Татьяна Мухина, Александр Карамнов, Анатолий Житник, Алексей Гнилицкий, Вероника Агапова
Описание: 1998 год, время перемен. Но главная героиня как будто не замечает того, что происходит вокруг. Ее жизнь резко изменилась – у нее появился Ванечка. Наивная красавица Надя приезжает в Москву поступать во ВГИК. Но происходит страшное: единственные московские знакомые Нади погибают в автокатастрофе, и главная героиня остается в чужом городе с их ребенком, сиротой Ванечкой на руках. Малыш станет самым близким для Нади человеком...
Доп. информация: По рассказу Эдуарда Тополя "Сумасбродка".
Сценарий: Юлия Тополь
Оператор: Арчил Ахвледиани
Художник: Владимир Трапезников
Композитор: Юрий Потеенко
Награды: специальный приз президента кинофестиваля имени Андрея Тарковского «Зеркало» (2007); «Большая золотая ладья» на XV фестивале российского кино «Окно в Европу (Выборгский счет)» (2007); приз за лучшую женскую роль (Елена Великанова) на II Всероссийском кинофестивале для подростков и юношества "…надцатилетние"» (2007)
Ограничения на просмотр: зрителям, достигшим 14 лет

Бонусы: интервью - создателей фильма (00:33:20), историка моды Александра Васильева (00:00:25), продюсера Яна Фишера Романовского (00:02:10), Ларисы (00:04:19); фотогалерея (00:03:30); музыкальные клипы - Антон Грааль, "Ангелы-хранители" (муз. Юлиана Донская - сл. Ольга Куланина) (00:04:08); Надежда Копытина, "Она" (00:03:23); информация о производителе; каталог; реклама
Меню: есть, анимированное, озвученное
Тип релиза: DVD9
Контейнер: DVD-Video
Видео: PAL 16:9 (720x576), 25 fps, Auto Pan&Scan (анаморф), VBR, 5890 Kbps
Аудио: Russian (Dolby AC3, 48 kHz, 6 ch, 384 Kbps)

DVDInfo

Title:
Size: 6.86 Gb ( 7 189 526 KBytes ) - DVD-9
Enabled regions: 1, 2, 3, 4, 5, 6, 8
VTS_01 :
Play Length: 01:43:13
Video: PAL 16:9 (720x576) VBR, Auto Pan&Scan
Audio:
Russian (Dolby AC3, 6 ch)
VTS_02 :
Play Length: 00:03:30
Video: PAL 4:3 (720x576) VBR
Audio:
Not specified (Dolby AC3, 2 ch)
VTS_03 :
Play Length: 00:33:20+00:00:25+00:02:10+00:04:19
Video: PAL 4:3 (720x576) VBR
Audio:
Not specified (Dolby AC3, 2 ch)
VTS_04 :
Play Length: 00:04:08+00:03:23
Video: PAL 4:3 (720x576) VBR
Audio:
Not specified (Dolby AC3, 2 ch)
Menu Video:
PAL 4:3 (720x576) VBR
Menu Audio:
Not specified (Dolby AC3, 2 ch)
Menu Subtitles:
Not specified
Menu English Language Unit :
Root Menu
Chapter (PTT) Menu

MediaInfo

Полное имя : \Vanechka\VIDEO_TS\VTS_01_1.VOB
Формат : MPEG-PS
Размер файла : 1024 Мбайт
Продолжительность : 22 м.
Общий поток : 6401 Кбит/сек
Видео
Идентификатор : 224 (0xE0)
Формат : MPEG Video
Версия формата : Version 2
Профиль формата : Main@Main
Параметр BVOP формата : Да
Параметр матрицы формата : Выборочная
Параметр GOP формата : Variable
Продолжительность : 22 м.
Битрейт : 5890 Кбит/сек
Максимальный битрейт : 6000 Кбит/сек
Ширина : 720 пикселей
Высота : 576 пикселей
Соотношение сторон : 16:9
Частота кадров : 25,000 кадров/сек
Стандарт вещания : PAL
Цветовое пространство : YUV
Субдискретизация насыщенности : 4:2:0
Битовая глубина : 8 бит
Тип развёртки : Чересстрочная
Порядок развёртки : Верхнее поле первое
Метод сжатия : С потерями
Бит/(Пиксели*Кадры) : 0.568
TimeCode_FirstFrame : 00:00:00:00
TimeCode_Source : Group of pictures header
Размер потока : 942 Мбайт (92%)
Аудио
Идентификатор : 189 (0xBD)-128 (0x80)
Формат : AC-3
Формат/Информация : Audio Coding 3
Расширение режима : CM (complete main)
Параметр Endianness формата : Big
Режим смешивания : DVD-Video
Продолжительность : 22 м.
Вид битрейта : Постоянный
Битрейт : 384 Кбит/сек
Каналы : 6 каналов
Расположение каналов : Front: L C R, Side: L R, LFE
Частота : 48,0 КГц
Битовая глубина : 16 бит
Метод сжатия : С потерями
Размер потока : 61,4 Мбайт (6%)

Сканы обложки и диска

Скриншоты меню

Скриншоты доп. материалов

Скриншоты названия и года выпуска

Скриншоты (без учета анаморфа)

[Профиль] [ЛС]
Кто просматривает тему:

Форум Тема Автор Размер
Фильмы (DVD 5/9) Ванечка (Елена Николаева) [2007, Россия, драма, мелодрама, DVD5] TorrentFilm 4.2 GB
Показать сообщения:    

Текущее время: Сегодня 11:53

Часовой пояс: GMT



Вы не можете начинать темы
Вы не можете отвечать на сообщения
Вы не можете редактировать свои сообщения
Вы не можете удалять свои сообщения
Вы не можете голосовать в опросах
Вы не можете прикреплять файлы к сообщениям
Вы не можете скачивать файлы