Вам телеграмма (Борис Конунов) [1983, драма, DVB]

 
Автор Сообщение

reversefile ®

Пол:

Стаж: 4 года 5 месяцев

Сообщений: 842

Откуда: ReverseFile.org



Награды: Нет

Торрент-статистика

Создавать темы 11-Авг-2014 06:20

[Цитировать]

Вам телеграмма
29.06.14 торрент обновлён, файл заменен на видео лучшего качества (битрейт 4700 против 3300)
Жанр: драма
Год выпуска: 1983
Продолжительность: 01:06:44
Режиссёр: Борис Конунов
В ролях: Татьяна Догилева, Карина Моритц, Геннадий Скоморохов, Юрий Сенкевич (II), Марика Балан, Паулина Завтони, Алла Сергийко, Татьяна Ватаву, Евгения Ботнару, Юрий Катин-Ярцев
Описание: Телефильм. Анна работает разносчицей телеграмм. У нее не складывается личная жизнь с мужем Сергеем. Единственное, что их связывает - подрастающий сын Антошка. Как в сказке Анна получает телеграмму от любящего ее одноклассника Алехина с предложением переехать жить к нему в только что полученную им квартиру. Сможет ли Анна бросить всё и уехать к любящему её человеку, чтобы начать новую жизнь?
Доп. информация: Запись потока *.ts со спутника EUTELSAT, ремукс в *.mpg программой VideoReDo.
Качество видео: DVB
Формат видео: MPEG-PS
Видео: MPEG Video, 720x576 (4 : 3), 25,000 кадров/сек, 4770 Кбит/сек
Аудио: MPEG Audio, 48,0 КГц, 192 Кбит/сек, 2 канала

MediaInfo

Общее
Полное имя : D:\MPG\ВАМ ТЕЛЕГРАММА (Россия 1).mpg
Формат : MPEG-PS
Размер файла : 2,36 Гбайт
Продолжительность : 1 ч. 6 м.
Режим общего битрейта : Переменный
Общий поток : 5062 Кбит/сек
Видео
Идентификатор : 224 (0xE0)
Формат : MPEG Video
Версия формата : Version 2
Профиль формата : Main@Main
Параметр BVOP формата : Да
Параметр матрицы формата : Выборочная
Параметр GOP формата : Variable
Продолжительность : 1 ч. 6 м.
Вид битрейта : Переменный
Битрейт : 4770 Кбит/сек
Максимальный битрейт : 15,0 Мбит/сек
Ширина : 720 пикселей
Высота : 576 пикселей
Соотношение сторон : 4:3
Частота кадров : 25,000 кадров/сек
Стандарт вещания : PAL
Цветовое пространство : YUV
Субдискретизация насыщенности : 4:2:0
Битовая глубина : 8 бит
Тип развёртки : Чересстрочная
Порядок развёртки : Верхнее поле первое
Метод сжатия : С потерями
Бит/(Пиксели*Кадры) : 0.460
Временной код первого кадра : 00:00:00:00
Оригинал временного кода : Group of pictures header
Размер потока : 2,22 Гбайт (94%)
Аудио
Идентификатор : 192 (0xC0)
Формат : MPEG Audio
Версия формата : Version 1
Профиль формата : Layer 2
Продолжительность : 1 ч. 6 м.
Вид битрейта : Постоянный
Битрейт : 192 Кбит/сек
Каналы : 2 канала
Частота : 48,0 КГц
Метод сжатия : С потерями
Задержка видео : 2 мс.
Размер потока : 91,7 Мбайт (4%)
[Профиль] [ЛС]

Создавать темы 06-Авг-2015 22:04 (спустя 11 месяцев 26 дней)

Топик был перенесен из форума Кино СССР в форум Кино СССР
sergej644
 
Кто просматривает тему:

Показать сообщения:    

Текущее время: Сегодня 12:52

Часовой пояс: GMT



Вы не можете начинать темы
Вы не можете отвечать на сообщения
Вы не можете редактировать свои сообщения
Вы не можете удалять свои сообщения
Вы не можете голосовать в опросах
Вы не можете прикреплять файлы к сообщениям
Вы не можете скачивать файлы