Вампир: Сон Алена Грея / Vampyr (1932) BDRemux 1080р | L1

 
Автор Сообщение

BOSS ®

Пол:

Стаж: 3 года 3 месяца

Сообщений: 9260

Откуда: ODESSA



Награды: 22 (Подробнее)

Mega Releaser 3 (Количество: 1) За внесенный вклад в развитие сайта (Количество: 1) Top Keeper 1 (Количество: 1)
Торрент-статистика

Создавать темы 13-Янв-2018 09:28

[Цитировать]

Информация о фильме
Название: Вампир: Сон Алена Грея
Оригинальное название: Vampyr
Год выхода: 1932
Жанр: ужасы, фэнтези
Режиссер: Карл Теодор Дрейер
В ролях: Джулиан Уэст, Морис Шюц, Рена Мэндел, Сибилла Шмиц, Ян Херонимко, Хенриетта Жерар, Альберт Брас, Н. Бабанини, Джейн Мора, Жорж Буаден
Описание: Путешественник останавливается в старинном замке, где наблюдает ужасные видения: человека, тень которого живет самостоятельной жизнью, странную фигуру с косой, сцену собственной смерти… Затем события принимают еще более зловещий оборот…

Страна: Германия, Франция
Продолжительность: 01:13:40
Перевод 1: Любительский (одноголосый закадровый) liosaa
Перевод 2: Любительский (одноголосый закадровый)
Субтитры: русские, английские
Оригинальная аудиодорожка: немецкий
Файл
Качество: BDRemux 1080р
Видео: AVC / 1920x1080 / 16:9 / 23.976 fps / 35481 kbps / High@L4.1
Аудио 1: Rus / AC3 / 48.0 KHz / 1.0 / 192 kbps / liosaa
Аудио 2: Rus / AC3 / 48.0 KHz / 1.0 / 192 kbps / VO
Аудио 3: Ger / FLAC / 48.0 KHz / 1.0 / 568 kbps / 24 bit
Аудио 4: Eng / AC3 / 48.0 KHz / 1.0 / 192 kbps / Commentary

Скриншоты

MediaInfo

Общее
Уникальный идентификатор : 261294932196549060232830862412639439192 (0xC49392CBE02F48E4B46BA7FF17B90958)
Полное имя : Vampyr.1932.Criterion.Collection.BDRemux.1080p.mkv
Формат : Matroska
Версия формата : Version 4 / Version 2
Размер файла : 18,8 Гбайт
Продолжительность : 1 ч. 13 м.
Режим общего битрейта : Переменный
Общий поток : 36,6 Мбит/сек
Название фильма : Vampyr.1932.Criterion.Collection.BDRemux.1080p-porvaliparus
Дата кодирования : UTC 2018-01-12 22:27:41
Программа кодирования : mkvmerge v19.0.0 ('Brave Captain') 64-bit
Библиотека кодирования : libebml v1.3.5 + libmatroska v1.4.8
Видео
Идентификатор : 1
Формат : AVC
Формат/Информация : Advanced Video Codec
Профиль формата : High@L4.1
Настройки формата : CABAC / 4 Ref Frames
Параметр CABAC формата : Да
Параметр RefFrames формата : 4 кадра
Идентификатор кодека : V_MPEG4/ISO/AVC
Продолжительность : 1 ч. 13 м.
Вид битрейта : Переменный
Битрейт : 35,4 Мбит/сек
Максимальный битрейт : 37,0 Мбит/сек
Ширина : 1920 пикселей
Высота : 1080 пикселей
Соотношение сторон : 16:9
Режим частоты кадров : Постоянный
Частота кадров : 23,976 (24000/1001) кадра/сек
Цветовое пространство : YUV
Субдискретизация насыщенности : 4:2:0
Битовая глубина : 8 бит
Тип развёртки : Прогрессивная
Бит/(Пиксели*Кадры) : 0.713
Размер потока : 18,2 Гбайт (97%)
Заголовок : Vampyr.1932.Criterion.Collection.BDRemux.1080p
Default : Да
Forced : Нет
Аудио #1
Идентификатор : 2
Формат : AC-3
Формат/Информация : Audio Coding 3
Идентификатор кодека : A_AC3
Продолжительность : 1 ч. 13 м.
Вид битрейта : Постоянный
Битрейт : 192 Кбит/сек
Каналы : 1 канал
Расположение каналов : Front: C
Частота : 48,0 КГц
Частота кадров : 31,250 кадров/сек (1536 SPF)
Битовая глубина : 16 бит
Метод сжатия : С потерями
Размер потока : 101 Мбайт (1%)
Заголовок : VO [liosaa]
Язык : Russian
Default : Да
Forced : Нет
Аудио #2
Идентификатор : 3
Формат : AC-3
Формат/Информация : Audio Coding 3
Идентификатор кодека : A_AC3
Продолжительность : 1 ч. 13 м.
Вид битрейта : Постоянный
Битрейт : 192 Кбит/сек
Каналы : 1 канал
Расположение каналов : Front: C
Частота : 48,0 КГц
Частота кадров : 31,250 кадров/сек (1536 SPF)
Битовая глубина : 16 бит
Метод сжатия : С потерями
Размер потока : 101 Мбайт (1%)
Заголовок : VO
Default : Нет
Forced : Нет
Аудио #3
Идентификатор : 4
Формат : FLAC
Формат/Информация : Free Lossless Audio Codec
Идентификатор кодека : A_FLAC
Продолжительность : 1 ч. 13 м.
Вид битрейта : Переменный
Битрейт : 568 Кбит/сек
Каналы : 1 канал
Расположение каналов : Front: C
Частота : 48,0 КГц
Частота кадров : 11,719 кадров/сек (4096 SPF)
Битовая глубина : 24 бит
Размер потока : 299 Мбайт (2%)
Библиотека кодирования : libFLAC 1.2.1 (UTC 2007-09-17)
Язык : German
Default : Нет
Forced : Нет
Аудио #4
Идентификатор : 5
Формат : AC-3
Формат/Информация : Audio Coding 3
Идентификатор кодека : A_AC3
Продолжительность : 1 ч. 13 м.
Вид битрейта : Постоянный
Битрейт : 192 Кбит/сек
Каналы : 1 канал
Расположение каналов : Front: C
Частота : 48,0 КГц
Частота кадров : 31,250 кадров/сек (1536 SPF)
Битовая глубина : 16 бит
Метод сжатия : С потерями
Размер потока : 101 Мбайт (1%)
Заголовок : Commentary
Язык : English
Default : Нет
Forced : Нет
Текст #1
Идентификатор : 6
Формат : UTF-8
Идентификатор кодека : S_TEXT/UTF8
Идентификатор кодека/Информация : UTF-8 Plain Text
Продолжительность : 1 ч. 13 м.
Битрейт : 25 бит/сек
ElementCount : 228
Размер потока : 13,5 Кбайт (0%)
Заголовок : liosaa
Язык : Russian
Default : Нет
Forced : Нет
Текст #2
Идентификатор : 7
Формат : UTF-8
Идентификатор кодека : S_TEXT/UTF8
Идентификатор кодека/Информация : UTF-8 Plain Text
Продолжительность : 1 ч. 11 м.
Битрейт : 20 бит/сек
ElementCount : 212
Размер потока : 10,7 Кбайт (0%)
Язык : Russian
Default : Нет
Forced : Нет
Текст #3
Идентификатор : 8
Формат : UTF-8
Идентификатор кодека : S_TEXT/UTF8
Идентификатор кодека/Информация : UTF-8 Plain Text
Продолжительность : 1 ч. 11 м.
Битрейт : 12 бит/сек
ElementCount : 212
Размер потока : 6,49 Кбайт (0%)
Язык : English
Default : Нет
Forced : Нет
Меню
00:00:00.000 : en:00:00:00.000
00:02:28.148 : en:00:02:28.148
00:10:46.062 : en:00:10:46.062
00:16:48.799 : en:00:16:48.799
00:20:22.471 : en:00:20:22.471
00:28:25.120 : en:00:28:25.120
00:32:05.257 : en:00:32:05.257
00:39:29.158 : en:00:39:29.158
00:43:01.204 : en:00:43:01.204
00:49:53.949 : en:00:49:53.949
00:51:37.553 : en:00:51:37.553
00:54:49.870 : en:00:54:49.870
00:58:09.528 : en:00:58:09.528
01:03:02.654 : en:01:03:02.654
01:06:45.210 : en:01:06:45.210
01:08:41.951 : en:01:08:41.951
[Профиль] [ЛС]
Показать сообщения:    

Текущее время: Сегодня 13:38

Часовой пояс: GMT



Вы не можете начинать темы
Вы не можете отвечать на сообщения
Вы не можете редактировать свои сообщения
Вы не можете удалять свои сообщения
Вы не можете голосовать в опросах
Вы не можете прикреплять файлы к сообщениям
Вы не можете скачивать файлы