Вальгалла: Сага о викинге / Valhalla Rising (Николас Виндинг Рефн / Nicolas Winding Refn) [2009, Дания, Великобритания, притча, приключения, HDRip] MVO (Россия) + MVO (Велес) + Original Eng

 
Автор Сообщение

TorrentFilm ®

Пол:

Стаж: 2 года

Сообщений: 7741



Награды: Нет

Торрент-статистика

Создавать темы 18-Дек-2015 00:07

[Цитировать]

Вальгалла: Сага о викинге
Valhalla Rising

Страна: Дания, Великобритания
Жанр: притча, приключения
Год выпуска: 2009
Продолжительность: 01:32:46-Перевод 1: Профессиональный (многоголосый закадровый)
телеканал Россия

Перевод 2: Профессиональный (многоголосый закадровый) Велес
Cубтитры: нет
Оригинальная аудиодорожка: английский-Режиссер: Николас Виндинг Рефн / Nicolas Winding Refn
В ролях: Мадс Миккельсен, Гари Льюис, Ивэн Стюарт, Джейми Сивес, Александр Мортон, Мэтью Заяц, Гари МакКормак, Эндрю Флэнеган, Дуглас Расселл, Джеймс Эмбри-Описание: 1000 год нашей эры. Немой раб-воин, по прозвищу Одноглазый, освобождается из многолетнего рабства, жестоко расправившись со своими прежними хозяевами. Вместе с мальчиком-слугой он присоединяется к воинам-христианам, отправляющимся в Иерусалим. По пути их судно попадает в сильный туман, и вместо Иерусалима они причаливают к неизвестной земле. Здесь они находят странные захоронения, а вылетающие из чащи стрелы убивают нескольких воинов. Возможно, Одноглазый завел их в ад. Возможно, это и есть та самая Вальгалла-Доп. информация:
О переводе т/к Россия: Перевод на трекере появляется впервые
Звук качеством "не страдает"
Синхронизация: mister55555-Сэмпл: минута39сек-Качество видео: HDRip (спасибо chopper887)
Формат видео: MKV
Видео: AVC, 1024x432, 2,40:1, 23,976 кадра/сек, 1468 Кбит/сек
Аудио 1: AC-3, 48,0 КГц, 192 Кбит/сек, 2 канала (многоголосый телеканал Россия)
Аудио 2: AC-3, 48,0 КГц, 192 Кбит/сек, 2 канала (многоголосый Велес)
Аудио 3: AC-3, 48,0 КГц, 384 Кбит/сек, 6 каналов (английская оригинальная дорожка)

MediaInfo

Общее
Уникальный идентификатор : 225384817259714204938205849152644534423 (0xA98F896F771299B58A532BAF72995097)
Полное имя : Вальгалла.Сага о викинге.2009.HDRip.mkv
Формат : Matroska
Версия формата : Version 2
Размер файла : 1,45 Гбайт
Продолжительность : 1 ч. 32 м.
Общий поток : 2234 Кбит/сек
Название фильма : Вальгалла: Сага о викинге(Valhalla Rising).2009.HDRip
Дата кодирования : UTC 2015-12-16 13:16:42
Программа кодирования : mkvmerge v8.3.0 ('Over the Horizon') 32bit
Библиотека кодирования : libebml v1.3.1 + libmatroska v1.4.2
Видео
Идентификатор : 1
Формат : AVC
Формат/Информация : Advanced Video Codec
Профиль формата : High@L4.1
Параметр CABAC формата : Да
Параметр ReFrames формата : 10 кадров
Идентификатор кодека : V_MPEG4/ISO/AVC
Продолжительность : 1 ч. 32 м.
Битрейт : 1468 Кбит/сек
Ширина : 1024 пикселя
Высота : 432 пикселя
Соотношение сторон : 2,40:1
Режим частоты кадров : Постоянный
Частота кадров : 23,976 кадра/сек
Цветовое пространство : YUV
Субдискретизация насыщенности : 4:2:0
Битовая глубина : 8 бит
Тип развёртки : Прогрессивная
Бит/(Пиксели*Кадры) : 0.138
Размер потока : 943 Мбайт (64%)
Заголовок : Вальгалла: Сага о викинге(Valhalla Rising).2009.HDRip
Библиотека кодирования : x264 core 95 r1592 95aacc4
Настройки программы : cabac=1 / ref=10 / deblock=1:-2:-1 / analyse=0x3:0x133 / me=umh / subme=9 / psy=1 / psy_rd=1.00:0.10 / mixed_ref=1 / me_range=32 / chroma_me=1 / trellis=2 / 8x8dct=1 / cqm=0 / deadzone=21,11 / fast_pskip=0 / chroma_qp_offset=-3 / threads=3 / sliced_threads=0 / nr=0 / decimate=1 / interlaced=0 / constrained_intra=0 / bframes=9 / b_pyramid=2 / b_adapt=2 / b_bias=0 / direct=1 / weightb=1 / weightp=2 / keyint=250 / keyint_min=25 / scenecut=40 / intra_refresh=0 / rc_lookahead=60 / rc=2pass / mbtree=1 / bitrate=1468 / ratetol=1.0 / qcomp=0.60 / qpmin=10 / qpmax=51 / qpstep=4 / cplxblur=20.0 / qblur=0.5 / ip_ratio=1.40 / aq=1:1.00
Язык : English
Default : Да
Forced : Нет
Аудио #1
Идентификатор : 2
Формат : AC-3
Формат/Информация : Audio Coding 3
Расширение режима : CM (complete main)
Параметр Endianness формата : Big
Идентификатор кодека : A_AC3
Продолжительность : 1 ч. 32 м.
Вид битрейта : Постоянный
Битрейт : 192 Кбит/сек
Каналы : 2 канала
Расположение каналов : Front: L R
Частота : 48,0 КГц
Частота кадров : 31,250 кадров/сек (1536 spf)
Метод сжатия : С потерями
Размер потока : 127 Мбайт (9%)
Заголовок : многоголосый телеканал Россия
Язык : Russian
Default : Да
Forced : Нет
Аудио #2
Идентификатор : 3
Формат : AC-3
Формат/Информация : Audio Coding 3
Расширение режима : CM (complete main)
Параметр Endianness формата : Big
Идентификатор кодека : A_AC3
Продолжительность : 1 ч. 32 м.
Вид битрейта : Постоянный
Битрейт : 192 Кбит/сек
Каналы : 2 канала
Расположение каналов : Front: L R
Частота : 48,0 КГц
Частота кадров : 31,250 кадров/сек (1536 spf)
Метод сжатия : С потерями
Размер потока : 127 Мбайт (9%)
Заголовок : многоголосый Велес
Язык : Russian
Default : Нет
Forced : Нет
Аудио #3
Идентификатор : 4
Формат : AC-3
Формат/Информация : Audio Coding 3
Расширение режима : CM (complete main)
Параметр Endianness формата : Big
Идентификатор кодека : A_AC3
Продолжительность : 1 ч. 32 м.
Вид битрейта : Постоянный
Битрейт : 384 Кбит/сек
Каналы : 6 каналов
Расположение каналов : Front: L C R, Side: L R, LFE
Частота : 48,0 КГц
Частота кадров : 31,250 кадров/сек (1536 spf)
Метод сжатия : С потерями
Размер потока : 255 Мбайт (17%)
Заголовок : оригинал
Язык : English
Default : Нет
Forced : Нет

Скриншот c названием фильма

[Профиль] [ЛС]

Создавать темы 12-Июн-2016 07:56 (спустя 5 месяцев 25 дней)

Топик был перенесен из форума Фильмы 2011 года в форум Фильмы 2009 года
Russian Mafia
 
Показать сообщения:    

Текущее время: Сегодня 06:26

Часовой пояс: GMT



Вы не можете начинать темы
Вы не можете отвечать на сообщения
Вы не можете редактировать свои сообщения
Вы не можете удалять свои сообщения
Вы не можете голосовать в опросах
Вы не можете прикреплять файлы к сообщениям
Вы не можете скачивать файлы