Вальгалла: Сага о викинге / Вознесение в Вальгаллу / Valhalla Rising (Николас Виндинг Рёфн / Nicolas Winding Refn) [2009 г., Притча, драма, HDRip-AVC] MVO + Eng + Sub rus eng

 
Автор Сообщение

Russian Mafia ®

Пол:

Стаж: 1 год 8 месяцев

Сообщений: 4257



Награды: 10 (Подробнее)

За внесенный вклад в развитие сайта (Количество: 1) Mega Seeder 1 (Количество: 1) Mega Seeder 4 (Количество: 1)
Торрент-статистика

Создавать темы 02-Сен-2015 09:25

[Цитировать]

Вальгалла: Сага о викинге / Вознесение в Вальгаллу / Valhalla Rising
Год выпуска: 2009
Страна: Дания, Великобритания
Жанр: Притча, драма
Продолжительность: 01:32:46
Перевод: Профессиональный многоголосый Велес
Русские субтитры: есть
Режиссер: Николас Виндинг Рёфн / Nicolas Winding Refn
В ролях: Мадс Миккельсен (One-Eye), Гари Льюис (Kare), Джэми Сивз (Gorm), Ивэн Стюарт (Eirik), Александр Мортон (Barde), Каллум Митчел (Pagan Viking Guard), Эндрю Флэнеган (Duggal), Дуглас Расселл (Olaf), Гари МакКормак (Hauk), Маартен Стивен (Are / The Boy), Гордон Браун (Hagen), Мэтью Заяц (Malkolm)
Описание: Мрачная, жёсткая, бескомпромиссная эра становления христианства. Только в такое время мог появиться главный герой картины. Одноглазый (так его окрестили) отправляется с христианами на войну за Святую Землю, но судьба приводит героев совершенно в другое место. По прохождении всех кругов ада и попадании в рай, оказавшийся пеклом, становиться ясно, кто есть кто.
Фильм-притча, фильм-аллегория. Его нельзя смотреть "под пивко". (с) Д. Строев
Качество: HDRip-AVC
Формат: MKV
Видео: 1024x432 (2.35:1), 23.976 fps, AVC, ~1468 Kbps, 0.138 bits/pixel
Аудио: 48 kHz, AC3 Dolby Digital, 3/2 (L,C,R,l,r) + LFE ch, ~384 kbps MVO
Аудио: 48 kHz, AC3 Dolby Digital, 3/2 (L,C,R,l,r) + LFE ch, ~384 kbps Английский
Cубтитры: русские ,английские

MediaInfo

General
Unique ID : 230277315302612723488923579571198883905 (0xAD3DCC366C79E2D59D259C622F9DF841)
Complete name : E:\Downloads\Valhalla Rising.chopper887.mkv
Format : Matroska
Format version : Version 2
File size : 1.45 GiB
Duration : 1h 32mn
Overall bit rate : 2 234 Kbps
Movie name : Valhalla Rising.chopper887
Encoded date : UTC 2012-04-01 13:53:23
Writing application : mkvmerge v4.8.0 ('I Got The...') сборка от May 24 2011 03:12:58
Writing library : libebml v1.2.0 + libmatroska v1.1.0
Video
ID : 1
Format : AVC
Format/Info : Advanced Video Codec
Format profile : High@L4.1
Format settings, CABAC : Yes
Format settings, ReFrames : 10 frames
Codec ID : V_MPEG4/ISO/AVC
Duration : 1h 32mn
Bit rate : 1 468 Kbps
Width : 1 024 pixels
Height : 432 pixels
Display aspect ratio : 2.35:1
Frame rate : 23.976 fps
Color space : YUV
Chroma subsampling : 4:2:0
Bit depth : 8 bits
Scan type : Progressive
Bits/(Pixel*Frame) : 0.138
Stream size : 943 MiB (64%)
Title : Valhalla Rising.chopper887
Writing library : x264 core 95 r1592 95aacc4
Encoding settings : cabac=1 / ref=10 / deblock=1:-2:-1 / analyse=0x3:0x133 / me=umh / subme=9 / psy=1 / psy_rd=1.00:0.10 / mixed_ref=1 / me_range=32 / chroma_me=1 / trellis=2 / 8x8dct=1 / cqm=0 / deadzone=21,11 / fast_pskip=0 / chroma_qp_offset=-3 / threads=3 / sliced_threads=0 / nr=0 / decimate=1 / interlaced=0 / constrained_intra=0 / bframes=9 / b_pyramid=2 / b_adapt=2 / b_bias=0 / direct=1 / weightb=1 / weightp=2 / keyint=250 / keyint_min=25 / scenecut=40 / intra_refresh=0 / rc_lookahead=60 / rc=2pass / mbtree=1 / bitrate=1468 / ratetol=1.0 / qcomp=0.60 / qpmin=10 / qpmax=51 / qpstep=4 / cplxblur=20.0 / qblur=0.5 / ip_ratio=1.40 / aq=1:1.00
Language : English
Default : No
Forced : No
Audio #1
ID : 2
Format : AC-3
Format/Info : Audio Coding 3
Mode extension : CM (complete main)
Codec ID : A_AC3
Duration : 1h 32mn
Bit rate mode : Constant
Bit rate : 384 Kbps
Channel(s) : 6 channels
Channel positions : Front: L C R, Side: L R, LFE
Sampling rate : 48.0 KHz
Bit depth : 16 bits
Compression mode : Lossy
Stream size : 255 MiB (17%)
Title : MVO
Default : Yes
Forced : No
Audio #2
ID : 3
Format : AC-3
Format/Info : Audio Coding 3
Mode extension : CM (complete main)
Codec ID : A_AC3
Duration : 1h 32mn
Bit rate mode : Constant
Bit rate : 384 Kbps
Channel(s) : 6 channels
Channel positions : Front: L C R, Side: L R, LFE
Sampling rate : 48.0 KHz
Bit depth : 16 bits
Compression mode : Lossy
Stream size : 255 MiB (17%)
Title : Английский
Default : No
Forced : No
Text #1
ID : 4
Format : UTF-8
Codec ID : S_TEXT/UTF8
Codec ID/Info : UTF-8 Plain Text
Title : Русские
Default : Yes
Forced : No
Text #2
ID : 5
Format : UTF-8
Codec ID : S_TEXT/UTF8
Codec ID/Info : UTF-8 Plain Text
Title : Английские
Default : No
Forced : No
[Профиль] [ЛС]

Создавать темы 12-Июн-2016 08:13 (спустя 9 месяцев 9 дней)

Топик был перенесен из форума Фильмы 2011 года в форум Фильмы 2009 года
Russian Mafia
 
Показать сообщения:    

Текущее время: Сегодня 06:02

Часовой пояс: GMT



Вы не можете начинать темы
Вы не можете отвечать на сообщения
Вы не можете редактировать свои сообщения
Вы не можете удалять свои сообщения
Вы не можете голосовать в опросах
Вы не можете прикреплять файлы к сообщениям
Вы не можете скачивать файлы