ВАЛЛ·И / WALL·E (Эндрю Стэнтон)[2008,мультфильм, фантастика, мелодрама, BDRip] 1080p | Лицензия

 
Автор Сообщение

sergej644 ®

Пол:

Стаж: 4 года 11 месяцев

Сообщений: 6044

Откуда: Soviet Union



Награды: Нет

Торрент-статистика

Создавать темы 04-Сен-2014 17:25

[Цитировать]

--ВАЛЛ·И / WALL·E (2008) BDRip 1080p Информация о фильме:
Название: ВАЛЛ·И
Оригинальное название: WALL·E
Год выхода: 2008
Жанр: мультфильм, фантастика, мелодрама, приключения, семейный
Режиссер: Эндрю Стэнтон
Роли озвучивали: Бен Бертт, Элисса Найт, Джефф Гарлин, Фред Уиллард, Джон Ратценбергер, Кэти Нэджими, Сигурни Уивер
О фильме: Робот ВАЛЛ·И из года в год прилежно трудится на опустевшей Земле, очищая нашу планету от гор мусора, которые оставили после себя улетевшие в космос люди. Он и не представляет, что совсем скоро произойдут невероятные события, благодаря которым он встретит друзей, поднимется к звездам и даже сумеет изменить к лучшему своих бывших хозяев, совсем позабывших родную Землю.«Любовь - дело техники»
Релиз от -
Автор рипа: Elheym
Выпущено: США, Pixar Animation Studios, Walt Disney Pictures
Продолжительность: 01:38:42
Перевод #1: Профессиональный (полное дублирование), BD EUR
Перевод #2: Профессиональный (многоголосый, закадровый), С.Р.И.
Перевод #3: Авторский (одноголосый, закадровый), Ю. Сербин
Перевод #4: Профессиональный (полное дублирование), украинский
Оригинальная аудио дорожка: английский
Субтитры: русские (полные, форсированные), украинские (полные, форсированные), английские (полные, полные SDH)
Главы: присутствуют, сохранены оригинальные
Файл:
Формат: MKV
Качество: BDRip 1080p (источник: / Blu-ray EUR / 1080p) [Локализованный видеоряд]
Видео: 1920x802 (2.40:1), 23.976 fps, MPEG-4 AVC, ~7830 kbps avg, 0.212 bit/pixel, 8 bit
Аудио #1: AC3 Dolby Digital, 3/2 (L,C,R,l,r) + LFE ch, ~640 kbps (DUB)
Аудио #2: AC3 Dolby Digital, 3/2 (L,C,R,l,r) + LFE ch, ~448 kbps (MVO.S.R.I.)
Аудио #3: AC3 Dolby Digital, 3/2 (L,C,R,l,r) + LFE ch, ~448 kbps (AVO.SERBIN)
Аудио #4: AC3 Dolby Digital, 3/2 (L,C,R,l,r) + LFE ch, ~384 kbps (UKR.DUB)
Аудио #5: DTS, 3/2 (L,C,R,l,r) + LFE ch, ~1509 kbps (ENG)
Размер: 7.76 GB
Сэмпл: скачать
-

MediaInfo

Уникальный идентификатор                 : 195835044072944627601252407896623456865 (0x935475224317823F9F98FF7D3462A261)
Полное имя                               : WALL·E.2008.1080p.BluRay.3xRus.Ukr.Eng.-HQCLUB.mkv
Формат                                   : Matroska
Версия формата                           : Version 2
Размер файла                             : 7,77 Гбайт
Продолжительность                        : 1 ч. 38 м.
Общий поток                              : 11,3 Мбит/сек
Дата кодирования                         : UTC 2014-08-30 18:17:27
Программа кодирования                    : mkvmerge v5.2.0 ('I can't explain') built on Dec 18 2011 18:12:03
Библиотека кодирования                   : libebml v1.2.3 + libmatroska v1.3.0
Attachment                               : Yes / Yes
Видео
Идентификатор                            : 1
Формат                                   : AVC
Формат/Информация                        : Advanced Video Codec
Профиль формата                          : High@L4.1
Параметр CABAC формата                   : Да
Параметр ReFrames формата                : 4 кадра
Идентификатор кодека                     : V_MPEG4/ISO/AVC
Продолжительность                        : 1 ч. 38 м.
Битрейт                                  : 7830 Кбит/сек
Ширина                                   : 1920 пикселей
Высота                                   : 802 пикселя
Соотношение сторон                       : 2,40:1
Режим частоты кадров                     : Постоянный
Частота кадров                           : 23,976 кадра/сек
Цветовое пространство                    : YUV
Субдискретизация насыщенности            : 4:2:0
Битовая глубина                          : 8 бит
Тип развёртки                            : Прогрессивная
Бит/(Пиксели*Кадры)                      : 0.212
Размер потока                            : 5,25 Гбайт (68%)
Заголовок                                : ВАЛЛ·И / WALL·E (2008) BDRip 1080p by HQCLUB [Elheym]
Библиотека кодирования                   : x264 core 142 r2453 ea0ca51
Настройки программы                      : cabac=1 / ref=5 / deblock=1:-1:-1 / analyse=0x3:0x113 / me=umh / subme=11 / psy=1 / psy_rd=0.90:0.12 / mixed_ref=1 / me_range=32 / chroma_me=1 / trellis=2 / 8x8dct=1 / cqm=0 / deadzone=21,11 / fast_pskip=1 / chroma_qp_offset=-5 / threads=6 / lookahead_threads=1 / sliced_threads=0 / nr=0 / decimate=1 / interlaced=0 / bluray_compat=0 / constrained_intra=0 / bframes=9 / b_pyramid=1 / b_adapt=2 / b_bias=0 / direct=3 / weightb=1 / open_gop=0 / weightp=2 / keyint=240 / keyint_min=23 / scenecut=40 / intra_refresh=0 / rc_lookahead=40 / rc=2pass / mbtree=0 / bitrate=7830 / ratetol=1.0 / qcomp=0.60 / qpmin=10 / qpmax=69 / qpstep=4 / cplxblur=20.0 / qblur=0.5 / vbv_maxrate=50000 / vbv_bufsize=62500 / nal_hrd=none / filler=0 / ip_ratio=1.40 / pb_ratio=1.30 / aq=1:0.90
Язык                                     : English
Default                                  : Да
Forced                                   : Нет
Аудио #1
Идентификатор                            : 2
Формат                                   : AC-3
Формат/Информация                        : Audio Coding 3
Расширение режима                        : CM (complete main)
Параметр Endianness формата              : Big
Идентификатор кодека                     : A_AC3
Продолжительность                        : 1 ч. 38 м.
Вид битрейта                             : Постоянный
Битрейт                                  : 640 Кбит/сек
Каналы                                   : 6 каналов
Расположение каналов                     : Front: L C R, Side: L R, LFE
Частота                                  : 48,0 КГц
Битовая глубина                          : 16 бит
Метод сжатия                             : С потерями
Размер потока                            : 452 Мбайт (6%)
Заголовок                                : АС3 5.1 @ 640 kbps - Dub
Язык                                     : Russian
Default                                  : Нет
Forced                                   : Нет
Аудио #2
Идентификатор                            : 3
Формат                                   : AC-3
Формат/Информация                        : Audio Coding 3
Расширение режима                        : CM (complete main)
Параметр Endianness формата              : Big
Идентификатор кодека                     : A_AC3
Продолжительность                        : 1 ч. 38 м.
Вид битрейта                             : Постоянный
Битрейт                                  : 448 Кбит/сек
Каналы                                   : 6 каналов
Расположение каналов                     : Front: L C R, Side: L R, LFE
Частота                                  : 48,0 КГц
Битовая глубина                          : 16 бит
Метод сжатия                             : С потерями
Размер потока                            : 316 Мбайт (4%)
Заголовок                                : АС3 5.1 @ 448 kbps - MVO (С.Р.И.)
Язык                                     : Russian
Default                                  : Нет
Forced                                   : Нет
Аудио #3
Идентификатор                            : 4
Формат                                   : AC-3
Формат/Информация                        : Audio Coding 3
Расширение режима                        : CM (complete main)
Параметр Endianness формата              : Big
Идентификатор кодека                     : A_AC3
Продолжительность                        : 1 ч. 38 м.
Вид битрейта                             : Постоянный
Битрейт                                  : 448 Кбит/сек
Каналы                                   : 6 каналов
Расположение каналов                     : Front: L C R, Side: L R, LFE
Частота                                  : 48,0 КГц
Битовая глубина                          : 16 бит
Метод сжатия                             : С потерями
Размер потока                            : 316 Мбайт (4%)
Заголовок                                : АС3 5.1 @ 448 kbps - AVO (Serbin)
Язык                                     : Russian
Default                                  : Нет
Forced                                   : Нет
Аудио #4
Идентификатор                            : 5
Формат                                   : AC-3
Формат/Информация                        : Audio Coding 3
Расширение режима                        : CM (complete main)
Параметр Endianness формата              : Big
Идентификатор кодека                     : A_AC3
Продолжительность                        : 1 ч. 38 м.
Вид битрейта                             : Постоянный
Битрейт                                  : 384 Кбит/сек
Каналы                                   : 6 каналов
Расположение каналов                     : Front: L C R, Side: L R, LFE
Частота                                  : 48,0 КГц
Битовая глубина                          : 16 бит
Метод сжатия                             : С потерями
Размер потока                            : 271 Мбайт (3%)
Заголовок                                : АС3 5.1 @ 384 kbps - Ukr dub
Язык                                     : Ukrainian
Default                                  : Нет
Forced                                   : Нет
Аудио #5
Идентификатор                            : 6
Формат                                   : DTS
Формат/Информация                        : Digital Theater Systems
Профиль формата                          : ES
Режим                                    : 16
Параметр Endianness формата              : Big
Идентификатор кодека                     : A_DTS
Продолжительность                        : 1 ч. 38 м.
Вид битрейта                             : Постоянный
Битрейт                                  : 1509 Кбит/сек
Каналы                                   : 6 каналов
Расположение каналов                     : Front: L C R, Side: L R, LFE
Частота                                  : 48,0 КГц
Битовая глубина                          : 24 бит
Метод сжатия                             : С потерями
Размер потока                            : 1,04 Гбайт (13%)
Заголовок                                : DTS 5.1 @ 1509 kbps - Original
Язык                                     : English
Default                                  : Нет
Forced                                   : Нет
Текст #1
Идентификатор                            : 7
Формат                                   : UTF-8
Идентификатор кодека                     : S_TEXT/UTF8
Идентификатор кодека/Информация          : UTF-8 Plain Text
Заголовок                                : Full
Язык                                     : Russian
Default                                  : Нет
Forced                                   : Нет
Текст #2
Идентификатор                            : 8
Формат                                   : UTF-8
Идентификатор кодека                     : S_TEXT/UTF8
Идентификатор кодека/Информация          : UTF-8 Plain Text
Заголовок                                : Forced
Язык                                     : Russian
Default                                  : Нет
Forced                                   : Нет
Текст #3
Идентификатор                            : 9
Формат                                   : UTF-8
Идентификатор кодека                     : S_TEXT/UTF8
Идентификатор кодека/Информация          : UTF-8 Plain Text
Заголовок                                : Full
Язык                                     : Ukrainian
Default                                  : Нет
Forced                                   : Нет
Текст #4
Идентификатор                            : 10
Формат                                   : UTF-8
Идентификатор кодека                     : S_TEXT/UTF8
Идентификатор кодека/Информация          : UTF-8 Plain Text
Заголовок                                : Forced
Язык                                     : Ukrainian
Default                                  : Нет
Forced                                   : Нет
Текст #5
Идентификатор                            : 11
Формат                                   : UTF-8
Идентификатор кодека                     : S_TEXT/UTF8
Идентификатор кодека/Информация          : UTF-8 Plain Text
Заголовок                                : Full
Язык                                     : English
Default                                  : Нет
Forced                                   : Нет
Текст #6
Идентификатор                            : 12
Формат                                   : UTF-8
Идентификатор кодека                     : S_TEXT/UTF8
Идентификатор кодека/Информация          : UTF-8 Plain Text
Заголовок                                : Full SDH
Язык                                     : English
Default                                  : Нет
Forced                                   : Нет
Меню
00:00:00.000                             : :Chapter 01
00:03:36.299                             : :Chapter 02
00:05:49.682                             : :Chapter 03
00:09:18.766                             : :Chapter 04
00:12:03.430                             : :Chapter 05
00:17:56.450                             : :Chapter 06
00:19:33.380                             : :Chapter 07
00:21:10.143                             : :Chapter 08
00:23:46.800                             : :Chapter 09
00:29:18.006                             : :Chapter 10
00:31:25.091                             : :Chapter 11
00:33:27.755                             : :Chapter 12
00:35:20.117                             : :Chapter 13
00:38:49.535                             : :Chapter 14
00:42:53.529                             : :Chapter 15
00:43:31.650                             : :Chapter 16
00:51:08.940                             : :Chapter 17
00:52:07.582                             : :Chapter 18
00:54:47.450                             : :Chapter 19
00:56:05.778                             : :Chapter 20
00:57:58.016                             : :Chapter 21
00:58:41.184                             : :Chapter 22
01:02:14.897                             : :Chapter 23
01:03:21.047                             : :Chapter 24
01:05:49.695                             : :Chapter 25
01:11:44.883                             : :Chapter 26
01:15:54.215                             : :Chapter 27
01:19:22.799                             : :Chapter 28
01:20:14.684                             : :Chapter 29
01:24:14.090                             : :Chapter 30
01:25:45.765                             : :Chapter 31
01:30:17.494                             : :Chapter 32
01:38:41.748                             : :Chapter 33

x264 log

x264 [info]: frame I:1206  Avg QP:14.48  size:196700
x264 [info]: frame P:43908 Avg QP:15.90  size: 73960
x264 [info]: frame B:96872 Avg QP:17.72  size: 23861
x264 [info]: consecutive B-frames:  8.5%  6.2% 24.0% 20.6% 13.4% 22.0%  3.4%  0.8%  0.8%  0.4%
x264 [info]: ref P L0: 67.6%  8.2% 15.8%  7.0%  1.3%  0.0%
x264 [info]: ref B L0: 84.2% 12.0%  3.8%
x264 [info]: ref B L1: 92.0%  8.0%
[Профиль] [ЛС]
Показать сообщения:    

Текущее время: Сегодня 10:03

Часовой пояс: GMT



Вы не можете начинать темы
Вы не можете отвечать на сообщения
Вы не можете редактировать свои сообщения
Вы не можете удалять свои сообщения
Вы не можете голосовать в опросах
Вы не можете прикреплять файлы к сообщениям
Вы не можете скачивать файлы