Валланцаска - ангелы зла / Vallanzasca - Gli angeli del male (2011) BDRip 720p | P

 
Автор Сообщение

Russian Mafia ®

Пол:

Стаж: 1 год 8 месяцев

Сообщений: 4252



Награды: 10 (Подробнее)

Top Releaser 4 (Количество: 1) Mega Seeder 5 (Количество: 1) Top Releaser 2 (Количество: 1)
Торрент-статистика

Создавать темы 09-Окт-2016 13:00

[Цитировать]

Информация о фильме
Название: Валланцаска - ангелы зла
Оригинальное название: Vallanzasca - Gli angeli del male
Год выхода: 2011
Жанр: биография, криминал, драма
Режиссер: Микеле Плачидо / Michele Placido
В ролях: Ким Росси Стюарт, Филиппо Тими, Мориц Бляйбтрой, Валерия Соларино, Паз Вега, Франческо Шианна, Гаэтано Бруно, Стефано Кьодароли и др.
О фильме:
История известной мафиозной группировки Comasina, терроризировавшей Милан в 70-ых годах. За совершенные преступления главарь банды друзей детства, Ренато «Красавчик Рено» Валлансаска, был осуждён на 260 лет лишения свободы. На его счету несколько убийств, грабежей, побегов из тюрьмы и разбитых женских сердец.

Страна: Италия, Франция, Румыния
Студия: Cosmo Production, Fox International Production Italy, Babe Film
Продолжительность: 02:08:11.232
Перевод: Профессиональный (многоголосый закадровый) AB Studio по заказу 1 канала
Файл
Кодек: h.264
Качество: BDRip 720p Источник Blu Ray от Artificial Eye
Видео: 1280x544 (2.35:1), 23.976 fps, AVC, ~4159 Kbps, 0.249 bits/pixel
Звук:
Итальянский, 48.0 KHz, AC3, 6 ch, 640 Kbps
Русский, 48.0 KHz, AC3, 2 ch, 192 Kbps
Субтитры: Английские, PGS

X264 log 2nd pass

frame I:1698 Avg QP:16.38 size:107145
frame P:38425 Avg QP:19.21 size: 43048
frame B:144282 Avg QP:21.13 size: 14979

MI

Общее
Уникальный идентификатор : 197925496953975069217507135582413135485 (0x94E7106B184B82CEB01099CFCE961E7D)
Полное имя : D:FILMSVallancaska_angely_zla.2011.BDRip720p.mkv
Формат : Matroska
Версия формата : Version 4 / Version 2
Размер файла : 4,48 Гбайт
Продолжительность : 2 ч. 8 м.
Общий поток : 5001 Кбит/сек
Дата кодирования : UTC 2016-10-08 22:09:43
Программа кодирования : mkvmerge v9.4.2 ('So High') 64bit
Библиотека кодирования : libebml v1.3.4 + libmatroska v1.4.5
Видео
Идентификатор : 1
Формат : AVC
Формат/Информация : Advanced Video Codec
Профиль формата : High@L4.1
Параметр CABAC формата : Да
Параметр ReFrames формата : 9 кадров
Идентификатор кодека : V_MPEG4/ISO/AVC
Продолжительность : 2 ч. 8 м.
Битрейт : 4159 Кбит/сек
Ширина : 1280 пикселей
Высота : 544 пикселя
Соотношение сторон : 2,35:1
Режим частоты кадров : Постоянный
Частота кадров : 23,976 (24000/1001) кадра/сек
Цветовое пространство : YUV
Субдискретизация насыщенности : 4:2:0
Битовая глубина : 8 бит
Тип развёртки : Прогрессивная
Бит/(Пиксели*Кадры) : 0.249
Размер потока : 3,72 Гбайт (83%)
Библиотека кодирования : x264 core 148 r2638 7599210
Настройки программы : cabac=1 / ref=9 / deblock=1:-3:-3 / analyse=0x3:0x133 / me=umh / subme=11 / psy=1 / psy_rd=1.10:0.15 / mixed_ref=1 / me_range=48 / chroma_me=1 / trellis=2 / 8x8dct=1 / cqm=0 / deadzone=21,11 / fast_pskip=0 / chroma_qp_offset=-3 / threads=8 / lookahead_threads=2 / sliced_threads=0 / nr=0 / decimate=0 / interlaced=0 / bluray_compat=0 / constrained_intra=0 / bframes=10 / b_pyramid=2 / b_adapt=2 / b_bias=0 / direct=3 / weightb=1 / open_gop=0 / weightp=2 / keyint=240 / keyint_min=23 / scenecut=40 / intra_refresh=0 / rc_lookahead=60 / rc=2pass / mbtree=0 / bitrate=4159 / ratetol=1.0 / qcomp=0.60 / qpmin=0 / qpmax=69 / qpstep=4 / cplxblur=20.0 / qblur=0.5 / vbv_maxrate=40000 / vbv_bufsize=50000 / nal_hrd=none / filler=0 / ip_ratio=1.40 / pb_ratio=1.30 / aq=1:1.00
Default : Нет
Forced : Нет
Цветовой диапазон : Limited
Основные цвета : BT.709
Характеристики трансфера : BT.709
Коэффициенты матрицы : BT.709
Аудио #1
Идентификатор : 2
Формат : AC-3
Формат/Информация : Audio Coding 3
Расширение режима : CM (complete main)
Параметр Endianness формата : Big
Идентификатор кодека : A_AC3
Продолжительность : 2 ч. 8 м.
Вид битрейта : Постоянный
Битрейт : 640 Кбит/сек
Каналы : 6 каналов
Расположение каналов : Front: L C R, Side: L R, LFE
Частота : 48,0 КГц
Частота кадров : 31,250 кадров/сек (1536 spf)
Метод сжатия : С потерями
Размер потока : 587 Мбайт (13%)
Язык : Italian
Default : Нет
Forced : Нет
Аудио #2
Идентификатор : 3
Формат : AC-3
Формат/Информация : Audio Coding 3
Расширение режима : CM (complete main)
Параметр Endianness формата : Big
Идентификатор кодека : A_AC3
Продолжительность : 2 ч. 8 м.
Вид битрейта : Постоянный
Битрейт : 192 Кбит/сек
Каналы : 2 канала
Расположение каналов : Front: L R
Частота : 48,0 КГц
Частота кадров : 31,250 кадров/сек (1536 spf)
Метод сжатия : С потерями
Размер потока : 176 Мбайт (4%)
Язык : Russian
Default : Да
Forced : Нет
Текст
Идентификатор : 4
Формат : PGS
Режим смешивания : zlib
Идентификатор кодека : S_HDMV/PGS
Идентификатор кодека/Информация : Picture based subtitle format used on BDs/HD-DVDs
Продолжительность : 2 ч. 2 м.
Битрейт : 9970 бит/сек
Count of elements : 3086
Размер потока : 8,76 Мбайт (0%)
Язык : English
Default : Нет
Forced : Нет
Меню
00:00:00.000 : en:00:00:00.000
00:13:41.320 : en:00:13:41.320
00:25:59.600 : en:00:25:59.600
00:36:39.072 : en:00:36:39.072
00:47:47.114 : en:00:47:47.114
00:56:09.199 : en:00:56:09.199
01:10:00.571 : en:01:10:00.571
01:21:31.178 : en:01:21:31.178
01:31:31.236 : en:01:31:31.236
01:41:11.399 : en:01:41:11.399
01:52:42.506 : en:01:52:42.506
02:03:08.881 : en:02:03:08.881

Скриншоты

Релиз от: Temperest
[Профиль] [ЛС]
Показать сообщения:    

Текущее время: Сегодня 04:46

Часовой пояс: GMT



Вы не можете начинать темы
Вы не можете отвечать на сообщения
Вы не можете редактировать свои сообщения
Вы не можете удалять свои сообщения
Вы не можете голосовать в опросах
Вы не можете прикреплять файлы к сообщениям
Вы не можете скачивать файлы