Валланцаска - ангелы зла / Vallanzasca - Gli angeli del male (2011) BD Remux | P

 
Автор Сообщение

Russian Mafia ®

Пол:

Стаж: 1 год 8 месяцев

Сообщений: 4260



Награды: 10 (Подробнее)

Mega Seeder 2 (Количество: 1) Top Releaser 4 (Количество: 1) Top Releaser 2 (Количество: 1)
Торрент-статистика

Создавать темы 09-Окт-2016 13:00

[Цитировать]

Информация о фильме
Название: Валланцаска - ангелы зла
Оригинальное название: Vallanzasca - Gli angeli del male
Год выхода: 2011
Жанр: биография, криминал, драма
Режиссер: Микеле Плачидо / Michele Placido
В ролях: Ким Росси Стюарт, Филиппо Тими, Мориц Бляйбтрой, Валерия Соларино, Паз Вега, Франческо Шианна, Гаэтано Бруно, Стефано Кьодароли и др.
О фильме:
История известной мафиозной группировки Comasina, терроризировавшей Милан в 70-ых годах. За совершенные преступления главарь банды друзей детства, Ренато «Красавчик Рено» Валлансаска, был осуждён на 260 лет лишения свободы. На его счету несколько убийств, грабежей, побегов из тюрьмы и разбитых женских сердец.

Страна: Италия, Франция, Румыния
Студия: Cosmo Production, Fox International Production Italy, Babe Film
Продолжительность: 02:08:11.232
Перевод: Профессиональный (многоголосый закадровый) AB Studio по заказу 1 канала
Файл
Кодек: h.264
Качество: BD Remux Источник Blu Ray от Artificial Eye
Видео: 1920x1080 (16:9), 23.976 fps, AVC, ~22.9 Mbps, 0.461 bits/pixel
Звук:
Итальянский, 48.0 KHz, DTS-HD MA, 6 ch, 1561 Kbps/1510 Kbps
Русский, 48.0 KHz, AC3, 2 ch, 192 Kbps
Субтитры: Английские, PGS

MI

Общее
Уникальный идентификатор : 245320454484407300567171101805483582921 (0xB88F003CB3672D069FD561273942E5C9)
Полное имя : D:FILMSVallancaska_angely_zla.2011.BDRemux.mkv
Формат : Matroska
Версия формата : Version 4 / Version 2
Размер файла : 22,5 Гбайт
Продолжительность : 2 ч. 8 м.
Режим общего битрейта : Переменный
Общий поток : 25,1 Мбит/сек
Дата кодирования : UTC 2016-10-08 22:44:39
Программа кодирования : mkvmerge v9.4.2 ('So High') 64bit
Библиотека кодирования : libebml v1.3.4 + libmatroska v1.4.5
Видео
Идентификатор : 1
Формат : AVC
Формат/Информация : Advanced Video Codec
Профиль формата : High@L4.1
Параметр CABAC формата : Да
Параметр ReFrames формата : 4 кадра
Идентификатор кодека : V_MPEG4/ISO/AVC
Продолжительность : 2 ч. 8 м.
Вид битрейта : Переменный
Битрейт : 23,0 Мбит/сек
Максимальный битрейт : 30,0 Мбит/сек
Ширина : 1920 пикселей
Высота : 1080 пикселей
Соотношение сторон : 16:9
Режим частоты кадров : Постоянный
Частота кадров : 23,976 (24000/1001) кадра/сек
Стандарт вещания : NTSC
Цветовое пространство : YUV
Субдискретизация насыщенности : 4:2:0
Битовая глубина : 8 бит
Тип развёртки : Прогрессивная
Бит/(Пиксели*Кадры) : 0.463
Размер потока : 20,6 Гбайт (91%)
Default : Нет
Forced : Нет
Цветовой диапазон : Limited
Основные цвета : BT.709
Характеристики трансфера : BT.709
Коэффициенты матрицы : BT.709
Аудио #1
Идентификатор : 2
Формат : DTS
Формат/Информация : Digital Theater Systems
Профиль формата : MA / Core
Режим : 16
Параметр Endianness формата : Big
Идентификатор кодека : A_DTS
Продолжительность : 2 ч. 8 м.
Вид битрейта : Переменный / Постоянный
Битрейт : 1920 Кбит/сек / 1509 Кбит/сек
Каналы : 6 каналов
Расположение каналов : Front: L C R, Side: L R, LFE
Частота : 48,0 КГц
Частота кадров : 93,750 кадра/сек (512 spf)
Битовая глубина : 16 бит
Метод сжатия : Без потерь / Lossy
Размер потока : 1,73 Гбайт (8%)
Язык : Italian
Default : Нет
Forced : Нет
Аудио #2
Идентификатор : 3
Формат : AC-3
Формат/Информация : Audio Coding 3
Расширение режима : CM (complete main)
Параметр Endianness формата : Big
Идентификатор кодека : A_AC3
Продолжительность : 2 ч. 8 м.
Вид битрейта : Постоянный
Битрейт : 192 Кбит/сек
Каналы : 2 канала
Расположение каналов : Front: L R
Частота : 48,0 КГц
Частота кадров : 31,250 кадров/сек (1536 spf)
Метод сжатия : С потерями
Размер потока : 176 Мбайт (1%)
Язык : Russian
Default : Да
Forced : Нет
Текст
Идентификатор : 4
Формат : PGS
Режим смешивания : zlib
Идентификатор кодека : S_HDMV/PGS
Идентификатор кодека/Информация : Picture based subtitle format used on BDs/HD-DVDs
Продолжительность : 2 ч. 2 м.
Битрейт : 9970 бит/сек
Count of elements : 3086
Размер потока : 8,76 Мбайт (0%)
Язык : English
Default : Нет
Forced : Нет
Меню
00:00:00.000 : en:00:00:00.000
00:13:41.320 : en:00:13:41.320
00:25:59.600 : en:00:25:59.600
00:36:39.072 : en:00:36:39.072
00:47:47.114 : en:00:47:47.114
00:56:09.199 : en:00:56:09.199
01:10:00.571 : en:01:10:00.571
01:21:31.178 : en:01:21:31.178
01:31:31.236 : en:01:31:31.236
01:41:11.399 : en:01:41:11.399
01:52:42.506 : en:01:52:42.506
02:03:08.881 : en:02:03:08.881

Скриншоты

Релиз от: Temperest
[Профиль] [ЛС]
Показать сообщения:    

Текущее время: Сегодня 12:12

Часовой пояс: GMT



Вы не можете начинать темы
Вы не можете отвечать на сообщения
Вы не можете редактировать свои сообщения
Вы не можете удалять свои сообщения
Вы не можете голосовать в опросах
Вы не можете прикреплять файлы к сообщениям
Вы не можете скачивать файлы