Валериан и город тысячи планет / Valerian and the City of a Thousand Planets (2017) BDRemux 1080p | RUS Transfer | Лицензия | Локализованная версия

 
Автор Сообщение

BOSS ®

Пол:

Стаж: 4 года 1 месяц

Сообщений: 12406

Откуда: ODESSA



Награды: 22 (Подробнее)

Top Seeder 4 (Количество: 1) Top Keeper 3 (Количество: 1) Top Seeder 3 (Количество: 1)
Торрент-статистика

Создавать темы 22-Дек-2017 17:31

[Цитировать]

Название: Валериан и город тысячи планет
Оригинальное название: Valerian and the City of a Thousand Planets
Год выхода: 2017
Жанр: Фантастика, фэнтези, боевик, приключения
Режиссер: Люк Бессон
В ролях: Дэйн ДеХаан, Кара Делевинь, Клайв Оуэн, Рианна, Итэн Хоук, Херби Хэнкок, Крис У, Сэм Спруэлл, Ален Шаба, Рутгер Хауэр
О фильме:
2700 год. Валериан и Лорелин — космические спецагенты, которые по долгу службы впутались в подозрительное дело и стали невольными участниками то ли межгалактического заговора, то ли аферы причудливых поселенцев планеты Альфа, прибывших туда из различных миров со всех уголков галактик.

Страна: Франция, Китай, Бельгия, Германия, ОАЭ, США
Студия: EuropaCorp, Fundamental Films
Продолжительность: 02:16:57
Перевод: Профессиональный (дублированный)
Субтитры: Русские (forced, вшитые), русские (full), английские (full)
Формат: MKV
Качество: BDRemux 1080p | RUS Transfer | Локализованный видеоряд
Видео: MPEG-4 AVC / 30072 kbps / 1920x1080 / 23.976 fps
Звук:
#1. Russian: DTS-HD Master Audio / 5.1 / 48 kHz / 2394 kbps - Дублированный
#2. Russian: Dolby Digital Audio / 5.1 / 48 kHz / 640 kbps - Дублированный
#3. English: Dolby Digital Audio / 5.1 / 48 kHz / 640 kbps - Оригинал

MediaInfo

Format : Matroska
Format version : Version 2
File size : 32.3 GiB
Duration : 2 h 16 min
Overall bit rate mode : Variable
Overall bit rate : 33.7 Mb/s
Movie name : Valerian and the City of a Thousand Planets BDRemux [RUS Transfer]
Encoded date : UTC 2017-12-22 12:10:08
Writing application : mkvmerge v4.9.1 ('Ich will') сборка от Jul 11 2011 23:53:15
Writing library : libebml v1.2.1 + libmatroska v1.1.1
Video
ID : 1
Format : AVC
Format/Info : Advanced Video Codec
Format profile : High@L4.1
Format settings, CABAC : Yes
Format settings, RefFrames : 4 frames
Format settings, GOP : M=3, N=23
Codec ID : V_MPEG4/ISO/AVC
Duration : 2 h 16 min
Bit rate mode : Variable
Maximum bit rate : 35.0 Mb/s
Width : 1 920 pixels
Height : 1 080 pixels
Display aspect ratio : 16:9
Frame rate mode : Constant
Frame rate : 23.976 (24000/1001) FPS
Standard : NTSC
Color space : YUV
Chroma subsampling : 4:2:0
Bit depth : 8 bits
Scan type : Progressive
Title : Valerian and the City of a Thousand Planets
Language : English
Default : Yes
Forced : No
Color range : Limited
Color primaries : BT.709
Transfer characteristics : BT.709
Matrix coefficients : BT.709
Audio #1
ID : 2
Format : DTS
Format/Info : Digital Theater Systems
Format profile : MA / Core
Mode : 16
Format settings, Endianness : Big
Codec ID : A_DTS
Duration : 2 h 16 min
Bit rate mode : Variable / Constant
Bit rate : Unknown / 1 509 kb/s
Channel(s) : 6 channels
Channel positions : Front: L C R, Side: L R, LFE
Sampling rate : 48.0 kHz
Frame rate : 93.750 FPS (512 SPF)
Bit depth : 24 bits
Compression mode : Lossless / Lossy
Title : DTS-HD Master Audio (Дублированный)
Language : Russian
Default : Yes
Forced : No
Audio #2
ID : 3
Format : AC-3
Format/Info : Audio Coding 3
Format settings, Endianness : Big
Codec ID : A_AC3
Duration : 2 h 16 min
Bit rate mode : Constant
Bit rate : 640 kb/s
Channel(s) : 6 channels
Channel positions : Front: L C R, Side: L R, LFE
Sampling rate : 48.0 kHz
Frame rate : 31.250 FPS (1536 SPF)
Bit depth : 16 bits
Compression mode : Lossy
Stream size : 627 MiB (2%)
Title : Dolby Digital Audio (Дублированный)
Language : Russian
Service kind : Complete Main
Default : No
Forced : No
Audio #3
ID : 4
Format : AC-3
Format/Info : Audio Coding 3
Format settings, Endianness : Big
Codec ID : A_AC3
Duration : 2 h 16 min
Bit rate mode : Constant
Bit rate : 640 kb/s
Channel(s) : 6 channels
Channel positions : Front: L C R, Side: L R, LFE
Sampling rate : 48.0 kHz
Frame rate : 31.250 FPS (1536 SPF)
Bit depth : 16 bits
Compression mode : Lossy
Stream size : 627 MiB (2%)
Title : Dolby Digital Audio (Original)
Language : English
Service kind : Complete Main
Default : No
Forced : No
Text #1
ID : 5
Format : UTF-8
Codec ID : S_TEXT/UTF8
Codec ID/Info : UTF-8 Plain Text
Title : Full
Language : Russian
Default : No
Forced : No
Text #2
ID : 6
Format : UTF-8
Codec ID : S_TEXT/UTF8
Codec ID/Info : UTF-8 Plain Text
Title : Full
Language : English
Default : No
Forced : No
Menu
00:00:00.000 : :Chapter 01
00:16:08.509 : :Chapter 02
00:34:27.607 : :Chapter 03
00:50:01.206 : :Chapter 04
01:08:12.963 : :Chapter 05
01:26:22.427 : :Chapter 06
01:39:57.700 : :Chapter 07
01:57:43.056 : :Chapter 08

Скриншоты


[Профиль] [ЛС]
Кто просматривает тему:

Форум Тема Автор Размер
Pop (Pop) VA - Валерию Меладзе от Velvet Music: Юбилей 50 лет (2015) MP3 BOSS 123 MB
Pop (Pop)Валерий Меладзе - Антология (1995-2015) (7CD) - 2015 [FLAC, image +.cue, lossless] sergej644 2.43 GB
Russian music (other genres) (Шансон) Валерий Юг - Дискография (4 альбома) 2012-2014, MP3, 320 kbps Russian Mafia 462 MB
National Geographic NG: Марс / Mars [серии 1-6 из 6] (Эверардо Валерио Гоут) [2016 г., Документально-постановочный, фантастика, драма, приключения, HDTVRip 720p] skorpionN 10.58 GB
Документальные HD Англия в Общем и в Частности: Проект Владимира Познера и Ивана Урганта. Выпуск 1 (из 10) (Валерий Спирин) [2015, Документальный, DD5.1, HDTV 720p] TorrentFilm 2.97 GB
Путешествия и приключения Будни гарема (Попов Валерий) [2009, Приключения, аудиокнига, MP3, 128 kbps, Дунаев Григорий] Magnat 292 MB
Отечественные мультфильмы Валера (Джалиль Ризванов) [2012, Мультсериал для взрослых, комедия, приключения, рисованный, WEBRip] TorrentFilm 768 MB
Ultra HD (UHD: 2K,4K, 8K) — видео сверхвысокой чёткости Валериан и город тысячи планет / Valerian and the City of a Thousand Planets (2017) BDRemux 2160p | 4K | HDR | D, A | Лицензия BOSS 55.58 GB
Показать сообщения:    

Текущее время: Сегодня 03:41

Часовой пояс: GMT



Вы не можете начинать темы
Вы не можете отвечать на сообщения
Вы не можете редактировать свои сообщения
Вы не можете удалять свои сообщения
Вы не можете голосовать в опросах
Вы не можете прикреплять файлы к сообщениям
Вы не можете скачивать файлы