Валера (Джалиль Ризванов) [2012, Мультсериал для взрослых, комедия, приключения, рисованный, WEBRip]

 
Автор Сообщение

TorrentFilm ®

Пол:

Стаж: 2 года

Сообщений: 7741



Награды: Нет

Торрент-статистика

Создавать темы 27-Сен-2015 00:08

[Цитировать]

Валера
Страна: Россия, Канал 2x2
Жанр: Мультсериал для взрослых, комедия, приключения, рисованный
Продолжительность: 9 x ~ 00:12:49
Год выпуска: 2012
Перевод: Не требуется
Русские субтитры: нет
Режиссёр: Джалиль Ризванов
Описание: При просмотре этого мультфильма, предназначенного для взрослой аудитории, зрителю предстоит знакомство с молодым парнем по имени Валера. Он ведет самую обыкновенную, если так можно ее охарактеризовать, жизнь офисного планктона, выполняя обязанности клерка в одной из компаний. Правда, Валера — один из немногих представителей тех, кто не потерял человеческого лица в вечных карьерных склоках, и, пожалуй, единственная частица трезвого ума и вполне здравого смысла в этом офисе. Работая в окружении завистливых и безжалостных коллег под руководством вечно раздраженного и уходящего в частые запои босса, он старается не уподобиться всем остальным. В этом же офисе трудится и девушка мечты Валеры, которая не обращает на несчастного влюбленного поклонника никакого внимания. Даже, невзирая на свой миролюбивый, мягкий и покладистый характер, главный герой все же оказывается в центре различных неприятностей и авантюр. Причем, в большинстве случаев виновниками этого являются его сумасшедшие коллеги. Обо всех этих приключениях скромного служащего и расскажет зрителю сюжет этого мультфильма.
Качество: WEBRip
Формат: AVI
Видео: 720x400 (1.80:1), 25 fps, XviD build 50 ~450 kbps avg, 0.06 bit/pixel
Аудио: 44.100 kHz, MPEG Layer 3, 2 ch, ~192.00 kbps avg
Субтитры: отсутствуют

Содержание

01. Бизнес-план
02. Кулер
03. Грудь
04. Отцы и дети
05. Фанаты
06. Фингал
07. Стрела
08. ХБТЮ
09. Новый Год

Подробные технические данные

ОбщееПолное имя : D:\Фильмы\Валера\02. Кулер.aviФормат : AVIФормат/Информация : Audio Video InterleaveРазмер файла : 106 МбайтПродолжительность : 11 м.Общий поток : 1272 Кбит/секПрограмма кодирования : MEncoder SVN-r30881(20100311-gcc4.3.3)Библиотека кодирования : MPlayer
ВидеоИдентификатор : 0Формат : MPEG-4 VisualПрофиль формата : Advanced Simple@L5Параметр BVOP формата : 2Параметр QPel формата : НетПараметр GMC формата : Без точки переходаПараметр матрицы формата : Default (H.263)Идентификатор кодека : XVIDИдентификатор кодека/Подсказка : XviDПродолжительность : 11 м.Битрейт : 1067 Кбит/секШирина : 720 пикселейВысота : 400 пикселейСоотношение сторон : 16:9Соотношение сторон в оригинале : 16:9Частота кадров : 25,000 кадров/секЦветовое пространство : YUVСубдискретизация насыщенности : 4:2:0Битовая глубина : 8 битТип развёртки : ПрогрессивнаяМетод сжатия : С потерямиБит/(Пиксели*Кадры) : 0.148Размер потока : 88,7 Мбайт (84%)Библиотека кодирования : XviD 1.2.1 (UTC 2008-12-04)
АудиоИдентификатор : 1Формат : MPEG AudioВерсия формата : Version 1Профиль формата : Layer 3Режим : Joint stereoРасширение режима : MS StereoИдентификатор кодека : 55Идентификатор кодека/Подсказка : MP3Продолжительность : 11 м.Вид битрейта : ПостоянныйБитрейт : 192 Кбит/секКаналы : 2 каналаЧастота : 44,1 КГцМетод сжатия : С потерямиЗадержка видео : 80 мс.Размер потока : 16,0 Мбайт (15%)Выравнивание : Соединение по промежуткамПродолжительность промежутка : 26 мс. (0,65 видеокадр)Время предзагрузки промежутка : 522 мс.Библиотека кодирования : LAME3.98

Скриншоты

[Профиль] [ЛС]
Кто просматривает тему:

Форум Тема Автор Размер
Pop (Pop) VA - Валерию Меладзе от Velvet Music: Юбилей 50 лет (2015) MP3 BOSS 123 MB
Pop (Pop)Валерий Меладзе - Антология (1995-2015) (7CD) - 2015 [FLAC, image +.cue, lossless] sergej644 2.43 GB
Russian music (other genres) (Шансон) Валерий Юг - Дискография (4 альбома) 2012-2014, MP3, 320 kbps Russian Mafia 462 MB
National Geographic NG: Марс / Mars [серии 1-4 из 6] (Эверардо Валерио Гоут) [2016 г., Художественно-документальный, HDTVRip 720p] skorpionN 7.05 GB
Документальные HD Англия в Общем и в Частности: Проект Владимира Познера и Ивана Урганта. Выпуск 1 (из 10) (Валерий Спирин) [2015, Документальный, DD5.1, HDTV 720p] TorrentFilm 2.97 GB
Отечественные cериалы Бандитский Петербург / сезоны 1-10 из 10 / серии 1-90 из 90 / (Владимир Бортко ,Андрей Бенкендорф, Влад Фурман, Виктор Сергеев,Валерий Мюльгаут) [2000-2007 г., Криминальная драма, DVDRip] Russian Mafia 43 GB
Путешествия и приключения Будни гарема (Попов Валерий) [2009, Приключения, аудиокнига, MP3, 128 kbps, Дунаев Григорий] Magnat 292 MB
Трейлеры Валериан и город тысячи планет / Valerian and the City of a Thousand Planets (2017) WEBRip-1080p | Трейлер Russian Mafia 78 MB
Показать сообщения:    

Текущее время: Сегодня 23:32

Часовой пояс: GMT



Вы не можете начинать темы
Вы не можете отвечать на сообщения
Вы не можете редактировать свои сообщения
Вы не можете удалять свои сообщения
Вы не можете голосовать в опросах
Вы не можете прикреплять файлы к сообщениям
Вы не можете скачивать файлы