Валентинка / Грустная валентинка / Blue Valentine (2010) BDRip 1080p | P,A

 
Автор Сообщение

sergej644 ®

Пол:

Стаж: 4 года 11 месяцев

Сообщений: 6035

Откуда: Soviet Union



Награды: Нет

Торрент-статистика

Создавать темы 18-Июн-2015 21:38

[Цитировать]

Валентинка / Грустная валентинка / Blue Valentine
«Nobody Baby But You And Me»
Русское название: Валентинка / Грустная валентинка
Оригинальное название: Blue Valentine
Год выпуска: 2010
Жанр: драма, мелодрама
Выпущено: США
Режиссер: Дерек Сиенфрэнс
В ролях: Райан Гослинг , Мишель Уильямс , Фэйт Владыка , Джон Доумен , Майк Фогель , Маршалл Джонсон , Джен Джонс , Марианн Планкетт , Бен Шенкман , Барбара Трой , Джеймс Бенатти , Кэри Уэстбрук
Перевод: Профессиональный многоголосый, Авторский (одноголосый)

Сюжет фильма:
Любовь сродни лестнице - по ней можно подняться высоко, ощутив неимоверное блаженство и счастье, а можно стремительно упасть вниз от разочарований и обид. Дин и Синди «купались» в своей любви, но спустя время они пресытились этим чувством. Непонятным образом оно трансформировалось и стало тяготить. Сумеют ли два родных человека удержать и возродить те хрупкие отношения влюбленности и страсти, которые у них остались?

Качество: BDRip 1080p
Формат: AVC (библиотека кодирования x.264)
Контейнер (Расширение): MKV
Видео: 1792x1080, 14500 Кбит/сек, 23,976 кадр/сек, 0,312 Бит/[Пиксели*Кадры]
Аудио №1: русский / AC3 / 5.1 / 48 kHz / 640 kbps / 16 bit |Профессиональный многоголосый (R5)|
Аудио №2: русский / AC3 / 5.1 / 48 kHz / 640 kbps / 16 bit |Авторский, В.Назаров|
Аудио №3: русский / AC3 / 5.1 / 48 kHz / 640 kbps / 16 bit |Авторский, Д.Строев|
Субтитры: русские, английские, английские (SDH)
Навигация по главам(Чаптеры): есть
Продолжительность: 01:52:04
Видеоряд CtrlHD

MediaInfo

Format : Matroska
Format version : Version 2
File size : 12.8 GiB
Duration : 1h 52mn
Overall bit rate : 16.4 Mbps
Movie name : Valentinka.(2010).BDRip.1080p.[denis100]
Encoded date : UTC 2015-06-08 08:15:56
Writing application : mkvmerge v5.8.0 ('No Sleep / Pillow') built on Sep 2 2012 15:37:04
Writing library : libebml v1.2.3 + libmatroska v1.3.0
Video
ID : 1
Format : AVC
Format/Info : Advanced Video Codec
Format profile : High@L4.1
Format settings, CABAC : Yes
Format settings, ReFrames : 4 frames
Codec ID : V_MPEG4/ISO/AVC
Duration : 1h 52mn
Bit rate : 14.5 Mbps
Width : 1 792 pixels
Height : 1 080 pixels
Display aspect ratio : 1.659
Frame rate : 23.976 fps
Color space : YUV
Chroma subsampling : 4:2:0
Bit depth : 8 bits
Scan type : Progressive
Bits/(Pixel*Frame) : 0.312
Stream size : 11.1 GiB (86%)
Title : Valentinka.(2010).BDRip.1080p.[denis100]
Writing library : x264 core 115 r1995 c1e60b9
Encoding settings : cabac=1 / ref=4 / deblock=1:-3:-3 / analyse=0x3:0x133 / me=tesa / subme=10 / psy=1 / psy_rd=0.80:0.00 / mixed_ref=1 / me_range=48 / chroma_me=1 / trellis=2 / 8x8dct=1 / cqm=0 / deadzone=21,11 / fast_pskip=0 / chroma_qp_offset=-2 / threads=12 / sliced_threads=0 / nr=0 / decimate=1 / interlaced=0 / bluray_compat=0 / constrained_intra=0 / bframes=8 / b_pyramid=2 / b_adapt=2 / b_bias=0 / direct=3 / weightb=1 / open_gop=0 / weightp=2 / keyint=250 / keyint_min=23 / scenecut=40 / intra_refresh=0 / rc_lookahead=60 / rc=2pass / mbtree=1 / bitrate=14500 / ratetol=1.0 / qcomp=0.80 / qpmin=0 / qpmax=69 / qpstep=4 / cplxblur=20.0 / qblur=0.5 / vbv_maxrate=40000 / vbv_bufsize=30000 / nal_hrd=none / ip_ratio=1.40 / aq=1:1.00 / zones=18898,27502,b=1.3,deblock=-3:-3,aq-strength=0.85,psy-rd=1.05:0.00/39696,51294,b=1.3,deblock=-3:-3,aq-strength=0.85,psy-rd=1.05:0.00/61865,77476,b=1.3,deblock=-3:-3,aq-strength=0.85,psy-rd=1.05:0.00/91297,109012,b=1.3,deblock=-3:-3,aq-strength=0.85,psy-rd=1.05:0.00/113778,118865,b=1.3,deblock=-3:-3,aq-strength=0.85,psy-rd=1.05:0.00/131443,140557,b=1.3,deblock=-3:-3,aq-strength=0.85,psy-rd=1.05:0.00/146869,148237,b=1.3,deblock=-3:-3,aq-strength=0.85,psy-rd=1.05:0.00/148995,149240,b=1.3,deblock=-3:-3,aq-strength=0.85,psy-rd=1.05:0.00/149575,150764,b=1.3,deblock=-3:-3,aq-strength=0.85,psy-rd=1.05:0.00/150959,151195,b=1.3,deblock=-3:-3,aq-strength=0.85,psy-rd=1.05:0.00
Language : English
Default : Yes
Forced : No
Audio #1
ID : 2
Format : AC-3
Format/Info : Audio Coding 3
Mode extension : CM (complete main)
Codec ID : A_AC3
Duration : 1h 52mn
Bit rate mode : Constant
Bit rate : 640 Kbps
Channel(s) : 6 channels
Channel positions : Front: L C R, Side: L R, LFE
Sampling rate : 48.0 KHz
Bit depth : 16 bits
Compression mode : Lossy
Stream size : 513 MiB (4%)
Title : Многоголосый закадровый, R5
Language : Russian
Default : Yes
Forced : No
Audio #2
ID : 3
Format : AC-3
Format/Info : Audio Coding 3
Mode extension : CM (complete main)
Codec ID : A_AC3
Duration : 1h 52mn
Bit rate mode : Constant
Bit rate : 640 Kbps
Channel(s) : 6 channels
Channel positions : Front: L C R, Side: L R, LFE
Sampling rate : 48.0 KHz
Bit depth : 16 bits
Compression mode : Lossy
Stream size : 513 MiB (4%)
Title : Авторский, В.Назаров
Language : Russian
Default : No
Forced : No
Audio #3
ID : 4
Format : AC-3
Format/Info : Audio Coding 3
Mode extension : CM (complete main)
Codec ID : A_AC3
Duration : 1h 52mn
Bit rate mode : Constant
Bit rate : 640 Kbps
Channel(s) : 6 channels
Channel positions : Front: L C R, Side: L R, LFE
Sampling rate : 48.0 KHz
Bit depth : 16 bits
Compression mode : Lossy
Stream size : 513 MiB (4%)
Title : Авторский, Д.Строев
Language : Russian
Default : No
Forced : No
Text #1
ID : 5
Format : UTF-8
Codec ID : S_TEXT/UTF8
Codec ID/Info : UTF-8 Plain Text
Language : Russian
Default : No
Forced : No
Text #2
ID : 6
Format : UTF-8
Codec ID : S_TEXT/UTF8
Codec ID/Info : UTF-8 Plain Text
Language : English
Default : No
Forced : No
Text #3
ID : 7
Format : UTF-8
Codec ID : S_TEXT/UTF8
Codec ID/Info : UTF-8 Plain Text
Title : SDH
Language : English
Default : No
Forced : No
Menu
00:00:00.000 : en:00:00:00.000
00:06:58.168 : en:00:06:58.168
00:13:08.246 : en:00:13:08.246
00:19:07.146 : en:00:19:07.146
00:22:32.685 : en:00:22:32.685
00:32:27.028 : en:00:32:27.028
00:35:39.471 : en:00:35:39.471
00:43:00.328 : en:00:43:00.328
00:50:18.766 : en:00:50:18.766
00:53:51.478 : en:00:53:51.478
01:06:24.981 : en:01:06:24.981
01:15:46.834 : en:01:15:46.834
01:22:37.744 : en:01:22:37.744
01:31:22.310 : en:01:31:22.310
01:37:42.523 : en:01:37:42.523
01:46:57.161 : en:01:46:57.161

Скриншоты

[Профиль] [ЛС]
Кто просматривает тему:

Форум Тема Автор Размер
Pop (Рор) VA - На Валентинов день - 2015, MP3, VBR 192-320 kbps Magnat 828 MB
Фантастика, фэнтези Андрей Валентинов - Сборник произведений (77 книг) [1996-2016, Альтернативная история, Фантастика, Фэнтези, FB2] Garik014 87 MB
Фантастика и фэнтези Болтливый мертвец (Фрай Макс) [2015, Фэнтези, аудиокнига, MP3, 64 kbps [VBR], Валентин Кузнецов] Magnat 96 MB
Разная литература Валентин Григорьев | Жизнь без боли в спине. Лечение сколиоза, остеопороза, остеохондроза, межпозвонковой грыжи без операции (2015) [FB2] достали все 16 MB
История, биографии, религия и искусство Валентин Пикуль - Баязет (2016) MP3 Swager 532 MB
История, биографии, религия и искусство Валентин Пикуль - Нечистая сила (2016) MP3 Swager 1.5 GB
История, биографии, религия и искусство Валентин Пикуль - Под золотым дождем (2016) MP3 Swager 236 MB
Фантастика, фэнтези Валентин Февраль | Отпетые мошенники галактики (2015) [FB2] достали все 1 MB
Показать сообщения:    

Текущее время: Сегодня 18:19

Часовой пояс: GMT



Вы не можете начинать темы
Вы не можете отвечать на сообщения
Вы не можете редактировать свои сообщения
Вы не можете удалять свои сообщения
Вы не можете голосовать в опросах
Вы не можете прикреплять файлы к сообщениям
Вы не можете скачивать файлы