Валентина Талызина: Время не Лечит [24.01.2015, Документальный, HDTV 720p]

 
Автор Сообщение

TorrentFilm ®

Пол:

Стаж: 2 года

Сообщений: 7741



Награды: Нет

Торрент-статистика

Создавать темы 26-Янв-2015 00:15

[Цитировать]

Валентина Талызина: Время не Лечит- Дата выпуска: 24.01.2015
Страна: Россия
Телеканал: Первый Канал HD
Жанр: Документальный
Продолжительность: 0:50:28
Режиссер: Руслан Трещёв-Описание: Валентина Талызина - великолепная актриса, которая никогда не боялась быть несимпатичной, не гналась за первыми ролями и всегда знала цену своему голосу. Когда закончились съемки фильма "Зигзаг удачи", Эльдар Рязанов сказал молоденькой Талызиной: "Мне очень жалко, что ты выходишь в большой кинематограф некрасивая. И мне очень хотелось бы, чтобы ты стала знаменитой".-Автор рипа: lrn
Сэмпл: Яндекс.Диск-Тип релиза: HDTV 720p
Контейнер: MKV
Видео: 1280x720 (16:9), 25,000 fps, H264, ~4000 kbps avg, ~0.176 bit/pixel
Аудио: 48 kHz, AC3 Dolby Digital, 2/0 (L,R) ch, ~192.00 kbps avg-

MediaInfo

General
Unique ID : 246643084029176026093837367003379302803 (0xB98DBAE88A45B3D0BC38F0D6C2A28193)
Complete name : E:\uTorrent.Temp\Temp\Valentina.Talyzina.Vremya.ne.Lechit..HDTV.720p.x264-lrn.mkv
Format : Matroska
Format version : Version 4 / Version 2
File size : 1.48 GiB
Duration : 50mn 28s
Overall bit rate : 4 195 Kbps
Movie name : 'Valentina Talyzina: Vremya ne Lechit (2015)' by lrn © 2015
Encoded date : UTC 2010-02-22 21:41:31
Writing application : mkvmerge v5.9.0 ('On The Loose') built on Dec 9 2012 15:37:01
Writing library : libebml v1.3.0 + libmatroska v1.4.0
DURATION : 00:50:28.840000000
NUMBER_OF_FRAMES : 75721
NUMBER_OF_BYTES : 1514769208
_STATISTICS_WRITING_APP : mkvmerge v7.0.0 ('Where We Going') 32bit built on Jun 9 2014 15:08:34
_STATISTICS_WRITING_DATE_UT : 2015-01-24 14:56:06
_STATISTICS_TAGS : BPS DURATION NUMBER_OF_FRAMES NUMBER_OF_BYTES
Video
ID : 1
Format : AVC
Format/Info : Advanced Video Codec
Format profile : High@L4.1
Format settings, CABAC : Yes
Format settings, ReFrames : 6 frames
Codec ID : V_MPEG4/ISO/AVC
Duration : 50mn 28s
Bit rate : 4 000 Kbps
Width : 1 280 pixels
Height : 720 pixels
Display aspect ratio : 16:9
Frame rate mode : Constant
Frame rate : 25.000 fps
Color space : YUV
Chroma subsampling : 4:2:0
Bit depth : 8 bits
Scan type : Progressive
Bits/(Pixel*Frame) : 0.174
Stream size : 1.38 GiB (93%)
Writing library : x264 core 142 r2431 ac76440
Encoding settings : cabac=1 / ref=6 / deblock=1:0:0 / analyse=0x3:0x133 / me=umh / subme=9 / psy=1 / psy_rd=1.00:0.00 / mixed_ref=1 / me_range=24 / chroma_me=1 / trellis=2 / 8x8dct=1 / cqm=0 / deadzone=21,11 / fast_pskip=1 / chroma_qp_offset=-2 / threads=12 / lookahead_threads=1 / sliced_threads=0 / nr=0 / decimate=1 / interlaced=0 / bluray_compat=0 / constrained_intra=0 / bframes=6 / b_pyramid=2 / b_adapt=2 / b_bias=0 / direct=3 / weightb=1 / open_gop=0 / weightp=2 / keyint=250 / keyint_min=25 / scenecut=40 / intra_refresh=0 / rc_lookahead=50 / rc=2pass / mbtree=1 / bitrate=4000 / ratetol=1.0 / qcomp=0.60 / qpmin=0 / qpmax=69 / qpstep=4 / cplxblur=20.0 / qblur=0.5 / ip_ratio=1.40 / aq=1:1.00
Default : Yes
Forced : No
Audio
ID : 2
Format : AC-3
Format/Info : Audio Coding 3
Mode extension : CM (complete main)
Format settings, Endianness : Big
Codec ID : A_AC3
Duration : 50mn 28s
Bit rate mode : Constant
Bit rate : 192 Kbps
Channel(s) : 2 channels
Channel positions : Front: L R
Sampling rate : 48.0 KHz
Bit depth : 16 bits
Compression mode : Lossy
Stream size : 69.3 MiB (5%)
Language : Russian
Default : Yes
Forced : No

-

Скриншоты

-
[Профиль] [ЛС]
Кто просматривает тему:

Форум Тема Автор Размер
Pop (Рор) VA - На Валентинов день - 2015, MP3, VBR 192-320 kbps Magnat 828 MB
Фантастика, фэнтези Андрей Валентинов - Сборник произведений (77 книг) [1996-2016, Альтернативная история, Фантастика, Фэнтези, FB2] Garik014 87 MB
Фантастика и фэнтези Болтливый мертвец (Фрай Макс) [2015, Фэнтези, аудиокнига, MP3, 64 kbps [VBR], Валентин Кузнецов] Magnat 96 MB
Разная литература Валентин Григорьев | Жизнь без боли в спине. Лечение сколиоза, остеопороза, остеохондроза, межпозвонковой грыжи без операции (2015) [FB2] достали все 16 MB
История, биографии, религия и искусство Валентин Пикуль - Баязет (2016) MP3 Swager 532 MB
История, биографии, религия и искусство Валентин Пикуль - Нечистая сила (2016) MP3 Swager 1.5 GB
История, биографии, религия и искусство Валентин Пикуль - Под золотым дождем (2016) MP3 Swager 236 MB
Фантастика, фэнтези Валентин Февраль | Отпетые мошенники галактики (2015) [FB2] достали все 1 MB
Показать сообщения:    

Текущее время: Сегодня 05:18

Часовой пояс: GMT



Вы не можете начинать темы
Вы не можете отвечать на сообщения
Вы не можете редактировать свои сообщения
Вы не можете удалять свои сообщения
Вы не можете голосовать в опросах
Вы не можете прикреплять файлы к сообщениям
Вы не можете скачивать файлы