Валаамский архипелаг. Зима (RTGHD) [2013, Документальный, HDTV 1080i]

 
Автор Сообщение

TorrentFilm ®

Пол:

Стаж: 2 года 4 месяца

Сообщений: 7773



Награды: Нет

Торрент-статистика

Создавать темы 27-Янв-2015 00:00

[Цитировать]

Валаамский архипелаг. Зима
Год выпуска: 2013
Страна: Россия
Жанр: Документальный
Продолжительность: 00:26:17
Перевод: Не требуется
Описание: Валаамский архипелаг, самое крупное скопление островов в Ладожском озере, поражает воображение путешественника в любое время года. Крутые скалы, покрытые густыми лесами, напоминают крепость. Зимой пейзаж отличает особая суровость и аскетичность. Не удивительно, что затерянные в Ладоге острова стали приютом для тех, кто готов к испытаниям, физическим и духовным. Не позднее 14 века здесь был основан Валаамский мужской монастырь. Природная крепость стала твердыней православия. Зимой жизнь на далеких островах полна одухотворенной красоты.
Доп. информация: IPTV Remux (запись потока без перекодирования).
26.01.2015 - обновление раздачи! Вместо записи с TorrentStream (битрейт 5 мбит) - теперь на раздаче исходник с IPTV (~10 мбит).
Тип релиза: HDTV 1080i
Контейнер: TS
Видео: AVC H.264, 1920x1080i (16:9), 25 fps, 9413 kbps, 0.182 bits/pixel
Аудио: MPEG Audio, 2 channels, 192 kbps, 48KHz

MediaInfo

GeneralID : 1 (0x1)Complete name : Валаамский архипелаг. Зима.tsFormat : MPEG-TSFile size : 1.86 GiBDuration : 26mn 17sOverall bit rate mode : VariableOverall bit rate : 10.1 Mbps
VideoID : 601 (0x259)Menu ID : 1 (0x1)Format : AVCFormat/Info : Advanced Video CodecFormat profile : Main@L4.0Format settings, CABAC : YesFormat settings, ReFrames : 3 framesCodec ID : 27Duration : 26mn 17sBit rate : 9 413 KbpsWidth : 1 920 pixelsHeight : 1 080 pixelsDisplay aspect ratio : 16:9Frame rate : 25.000 fpsStandard : ComponentColor space : YUVChroma subsampling : 4:2:0Bit depth : 8 bitsScan type : InterlacedScan order : Top Field FirstBits/(Pixel*Frame) : 0.182Stream size : 1.73 GiB (93%)Color primaries : BT.709Transfer characteristics : BT.709Matrix coefficients : BT.709
AudioID : 602 (0x25A)Menu ID : 1 (0x1)Format : MPEG AudioFormat version : Version 1Format profile : Layer 2Codec ID : 3Duration : 26mn 17sBit rate mode : ConstantBit rate : 192 KbpsChannel(s) : 2 channelsSampling rate : 48.0 KHzCompression mode : LossyStream size : 36.1 MiB (2%)Language : Russian

Скриншоты

[Профиль] [ЛС]
Показать сообщения:    

Текущее время: Сегодня 02:26

Часовой пояс: GMT



Вы не можете начинать темы
Вы не можете отвечать на сообщения
Вы не можете редактировать свои сообщения
Вы не можете удалять свои сообщения
Вы не можете голосовать в опросах
Вы не можете прикреплять файлы к сообщениям
Вы не можете скачивать файлы