Вакантна жизнь шеф-повара (2015) WEB-DL 720p | iTunes

 
Автор Сообщение

Russian Mafia ®

Пол:

Стаж: 1 год 8 месяцев

Сообщений: 4253



Награды: 10 (Подробнее)

Top Releaser 3 (Количество: 1) Mega Seeder 5 (Количество: 1) Mega Seeder 3 (Количество: 1)
Торрент-статистика

Создавать темы 23-Мар-2016 19:09

[Цитировать]

Информация о фильме
Название: Вакантна жизнь шеф-повара
Оригинальное название: Вакантна жизнь шеф-повара
Год выхода: 2015
Жанр: драма
Режиссер: Рустам Ильясов
В ролях: Пётр Фёдоров, Виктор Вержбицкий, Вильма Кутавичюте, Алексей Колубков, Софья Райзман, Виктор Проскурин, Дмитрий Калязин, Александр Обласов, Екатерина Молоховская, Надежда Жарычева
О фильме: Андрей и Лена — супружеская пара, они молоды и счастливы. Когда Лена уезжает на несколько дней, Андрей уходит в загул со своим лучшим другом. Переезжая из клуба в клуб, Андрей попадает в необычное место под названием «Фотоателье». Там ему предлагают принять участие в интригующей игре: побыть в роли другого человека, на несколько дней став шеф-поваром дорогого ресторана, у которого есть все: богатый дом, интересная работа и красивая жена. Теперь Андрею предстоит многое выяснить: кто такой шеф-повар, кем является он сам, и кому можно доверять в изменившемся мире.

Выпущено: Россия
Продолжительность: 01:24:49
Озвучивание: Оригинал [iTunes]
Файл
Формат: MKV
Качество: WEB-DL 720p
Видео: MPEG-4 AVC, 3916 kb/s, 1280x536
Аудио: AC3, 384 kb/s (6 ch)

MI

Format : Matroska
Format version : Version 4 / Version 2
File size : 2.60 GiB
Duration : 1h 24mn
Overall bit rate : 4 388 Kbps
Encoded date : UTC 2016-03-23 18:04:55
Writing application : mkvmerge v8.3.0 ('Over the Horizon') 64bit
Writing library : libebml v1.3.1 + libmatroska v1.4.2
Video
ID : 1
Format : AVC
Format/Info : Advanced Video Codec
Format profile : Main@L3.1
Format settings, CABAC : No
Format settings, ReFrames : 2 frames
Codec ID : V_MPEG4/ISO/AVC
Duration : 1h 24mn
Bit rate : 3 916 Kbps
Width : 1 280 pixels
Height : 536 pixels
Display aspect ratio : 2.40:1
Frame rate mode : Constant
Frame rate : 24.000 fps
Color space : YUV
Chroma subsampling : 4:2:0
Bit depth : 8 bits
Scan type : Progressive
Bits/(Pixel*Frame) : 0.238
Stream size : 2.32 GiB (89%)
Language : English
Default : Yes
Forced : No
Color range : Limited
Color primaries : BT.709
Transfer characteristics : BT.709
Matrix coefficients : BT.709
Audio
ID : 2
Format : AC-3
Format/Info : Audio Coding 3
Mode extension : CM (complete main)
Format settings, Endianness : Big
Codec ID : A_AC3
Duration : 1h 24mn
Bit rate mode : Constant
Bit rate : 384 Kbps
Channel(s) : 6 channels
Channel positions : Front: L C R, Side: L R, LFE
Sampling rate : 48.0 KHz
Bit depth : 16 bits
Compression mode : Lossy
Stream size : 233 MiB (9%)
Language : Russian
Default : Yes
Forced : No
Menu
00:00:00.000 : en:Глава 1
00:06:43.791 : en:Глава 2
00:13:37.582 : en:Глава 3
00:22:38.957 : en:Глава 4
00:26:40.290 : en:Глава 5
00:32:17.206 : en:Глава 6
00:37:38.456 : en:Глава 7
00:43:04.456 : en:Глава 8
00:48:55.497 : en:Глава 9
00:52:56.913 : en:Глава 10
01:00:02.579 : en:Глава 11
01:06:31.120 : en:Глава 12
01:11:11.745 : en:Глава 13
01:17:51.203 : en:Глава 14

Скриншоты

[Профиль] [ЛС]
Показать сообщения:    

Текущее время: Сегодня 21:00

Часовой пояс: GMT



Вы не можете начинать темы
Вы не можете отвечать на сообщения
Вы не можете редактировать свои сообщения
Вы не можете удалять свои сообщения
Вы не можете голосовать в опросах
Вы не можете прикреплять файлы к сообщениям
Вы не можете скачивать файлы