Вавилон Н.Э. / Babylon A.D. (2008) BDRip 720p | D, P

 
Автор Сообщение

sergej644 ®

Пол:

Стаж: 4 года 11 месяцев

Сообщений: 6038

Откуда: Soviet Union



Награды: Нет

Торрент-статистика

Создавать темы 10-Фев-2015 08:56

[Цитировать]

Информация о фильме
Год выхода: 2008
Жанр: фантастика, боевик, триллер, приключения
Режиссер: Матьё Кассовиц
В ролях: Вин Дизель, Мишель Йео, Мелани Тьерри, Жерар Депардье, Шарлотта Рэмплинг, Марк Стронг, Ламберт Уилсон, Жером Ле Баннер, Джоэль Кирби...
О фильме:
Крутой наемник Туроп, побывавший во многих горячих точках планеты, получает предложение, от которого не может отказаться. Главарь мафии Горский хочет, чтобы он доставил из Восточной Европы в Нью-Йорк загадочную девушку. Но очень скоро становится ясно, что на нее идет настоящая охота, возглавляемая могущественным религиозным орденом…

Страна: США, Франция, Великобритания
Продолжительность: 1:40:45
Перевод #1: профессиональный (многоголосый, закадровый) - студия "Kravec"
Перевод #2: профессиональный (полное дублирование)
Русские субтитры: нет
Файл
Кодек: x.264
Качество: BDRip-720p
Видео: 1280x544, 23,976 fps, 5 699 Kbps
Звук #1: 48 kHz, AC3 Dolby Digital, 6 ch, ~640 kbps - Кравец
Звук #2: 48 kHz, AC3 Dolby Digital, 6 ch, ~640 kbps - дубляж
Звук #3: 48 kHz, AC3 Dolby Digital, 6 ch, ~640 kbps - Английский

M/I

General
Unique ID : 179335266055009820536913366372737231771 (0x86EAB745175F36D78DA264F107AA2B9B)
Complete name : D:Babylon A.D.(2008).BDRip-720p.[-=DoMiNo=-].mkv
Format : Matroska
Format version : Version 4 / Version 2
File size : 5.47 GiB
Duration : 1h 40mn
Overall bit rate : 7 773 Kbps
Movie name : Babylon A.D.(2008).BDRip-720p.[-=DoMiNo=-]
Encoded date : UTC 2014-09-30 03:06:07
Writing application : mkvmerge v7.2.0 ('On Every Street') 64bit built on Sep 13 2014 15:52:10
Writing library : libebml v1.3.0 + libmatroska v1.4.1
DURATION : 01:40:45.088000000
NUMBER_OF_FRAMES : 188909
NUMBER_OF_BYTES : 483607040
_STATISTICS_WRITING_APP : mkvmerge v7.2.0 ('On Every Street') 64bit built on Sep 13 2014 15:52:10
_STATISTICS_WRITING_DATE_UTC : 2014-09-30 03:06:07
_STATISTICS_TAGS : BPS DURATION NUMBER_OF_FRAMES NUMBER_OF_BYTES
Video
ID : 1
Format : AVC
Format/Info : Advanced Video Codec
Format profile : High@L4.1
Format settings, CABAC : Yes
Format settings, ReFrames : 7 frames
Codec ID : V_MPEG4/ISO/AVC
Duration : 1h 40mn
Bit rate : 5 699 Kbps
Width : 1 280 pixels
Height : 544 pixels
Display aspect ratio : 2.35:1
Frame rate mode : Constant
Frame rate : 23.976 fps
Color space : YUV
Chroma subsampling : 4:2:0
Bit depth : 8 bits
Scan type : Progressive
Bits/(Pixel*Frame) : 0.341
Stream size : 4.01 GiB (73%)
Writing library : x264 core 130 r2273 b3065e6
Encoding settings : cabac=1 / ref=7 / deblock=1:-3:-3 / analyse=0x3:0x133 / me=umh / subme=11 / psy=1 / psy_rd=1.00:0.50 / mixed_ref=1 / me_range=32 / chroma_me=1 / trellis=2 / 8x8dct=1 / cqm=0 / deadzone=21,11 / fast_pskip=0 / chroma_qp_offset=-3 / threads=16 / lookahead_threads=4 / sliced_threads=0 / slices=4 / nr=0 / decimate=1 / interlaced=0 / bluray_compat=0 / constrained_intra=0 / bframes=8 / b_pyramid=2 / b_adapt=2 / b_bias=0 / direct=1 / weightb=1 / open_gop=0 / weightp=2 / keyint=250 / keyint_min=23 / scenecut=40 / intra_refresh=0 / rc_lookahead=50 / rc=crf / mbtree=1 / crf=18.0 / qcomp=0.70 / qpmin=0 / qpmax=69 / qpstep=4 / ip_ratio=1.40 / aq=1:1.00
Default : Yes
Forced : No
Audio #1
ID : 2
Format : AC-3
Format/Info : Audio Coding 3
Mode extension : CM (complete main)
Format settings, Endianness : Big
Codec ID : A_AC3
Duration : 1h 40mn
Bit rate mode : Constant
Bit rate : 640 Kbps
Channel(s) : 6 channels
Channel positions : Front: L C R, Side: L R, LFE
Sampling rate : 48.0 KHz
Bit depth : 16 bits
Compression mode : Lossy
Stream size : 461 MiB (8%)
Title : Кравец
Language : Russian
Default : Yes
Forced : No
Audio #2
ID : 3
Format : AC-3
Format/Info : Audio Coding 3
Mode extension : CM (complete main)
Format settings, Endianness : Big
Codec ID : A_AC3
Duration : 1h 40mn
Bit rate mode : Constant
Bit rate : 640 Kbps
Channel(s) : 6 channels
Channel positions : Front: L C R, Side: L R, LFE
Sampling rate : 48.0 KHz
Bit depth : 16 bits
Compression mode : Lossy
Stream size : 461 MiB (8%)
Title : дубляж
Language : Russian
Default : No
Forced : No
Audio #3
ID : 4
Format : AC-3
Format/Info : Audio Coding 3
Mode extension : CM (complete main)
Format settings, Endianness : Big
Codec ID : A_AC3
Duration : 1h 40mn
Bit rate mode : Constant
Bit rate : 640 Kbps
Channel(s) : 6 channels
Channel positions : Front: L C R, Side: L R, LFE
Sampling rate : 48.0 KHz
Bit depth : 16 bits
Compression mode : Lossy
Stream size : 461 MiB (8%)
Title : Английский
Language : English
Default : No
Forced : No
-- --
[Профиль] [ЛС]
Показать сообщения:    

Текущее время: Сегодня 14:37

Часовой пояс: GMT



Вы не можете начинать темы
Вы не можете отвечать на сообщения
Вы не можете редактировать свои сообщения
Вы не можете удалять свои сообщения
Вы не можете голосовать в опросах
Вы не можете прикреплять файлы к сообщениям
Вы не можете скачивать файлы