Бюро находок / (4 серии) (Олег Чуркин, Борис Акулиничев) [1982-1984 г., мультфильм, рисованный, DVB]

 
Автор Сообщение

TorrentFilm ®

Пол:

Стаж: 2 года

Сообщений: 7741



Награды: Нет

Торрент-статистика

Создавать темы 03-Янв-2016 00:04

[Цитировать]

Бюро находок / 4 серии
Жанр: мультфильм, рисованный
Год выпуска: 1982-1984
Продолжительность: 00:33:39
Режиссёр: Олег Чуркин, Борис Акулиничев
Описание: мультфильм о том, как пес Тишка и попугай Степаныч, под руководством старика (хозяина Бюро) расследуют различные забавные и криминальные случаи, связанные с потерей вещей ...
1. "Бюро находок. 1 серия" 1982г. – о приключениях бездомного пса Тишки, который в "Бюро находок" стал опытным детективом ...
2. "Бюро находок. 2 серия" 1982г. – нашлась корзина с яйцами. Пёс отправляется на поиски мамы-птицы, которая оказывается ...
3. "Бюро находок. 3 серия" 1983г. – сотрудники "Бюро" нашли пропавшие было у них вещи и обнаружили виновницу этих пропаж ...
4. "Бюро находок. 4 серия" 1984г. – сорока организовала школу "сорочьих наук", в которой решила обучать "искусству" обмана ...
Доп. информация:

Релиз группы:
Трансляция спутникового канала: "Карусель"
Качество видео: DVB
Формат видео: MPEG-PS
Видео: MPEG2 Video, 720x576, 25 fps, 3700 kbps
Аудио: MPEG Audio, 2 сh, 48 kHz, 192 kbps

MediaInfo

General
Complete name : D:\Бюро находок\1c. Бюро находок (1982)_DVB by SLuMeP.mpg
Format : MPEG-PS
File size : 254 MiB
Duration : 9mn 10s
Overall bit rate mode : Variable
Overall bit rate : 3 873 Kbps
Writing library : (c) 1998-2010 Womble Multimedia, Inc. / MPEG Video Wizard DVD 5.0.0.114 (01/2010) / Apr 20 2010
Video
ID : 224 (0xE0)
Format : MPEG Video
Format version : Version 2
Format profile : Main@Main
Format settings, BVOP : Yes
Format settings, Matrix : Custom
Format settings, GOP : M=3, N=12
Duration : 9mn 10s
Bit rate mode : Variable
Bit rate : 3 604 Kbps
Maximum bit rate : 5 000 Kbps
Width : 720 pixels
Height : 576 pixels
Display aspect ratio : 4:3
Frame rate : 25.000 fps
Standard : PAL
Color space : YUV
Chroma subsampling : 4:2:0
Bit depth : 8 bits
Scan type : Interlaced
Scan order : Top Field First
Compression mode : Lossy
Bits/(Pixel*Frame) : 0.348
Time code of first frame : 00:00:00:00
Time code source : Group of pictures header
Stream size : 237 MiB (93%)
Writing library : (c) 1998-2010 Womble Multimedia, Inc. / MPEG Video Wizard DVD 5.0.0.114 (01/2010) / Apr 20 2010
Audio
ID : 192 (0xC0)
Format : MPEG Audio
Format version : Version 1
Format profile : Layer 2
Duration : 9mn 10s
Bit rate mode : Constant
Bit rate : 192 Kbps
Channel(s) : 2 channels
Sampling rate : 48.0 KHz
Compression mode : Lossy
Stream size : 12.6 MiB (5%)
[Профиль] [ЛС]
Кто просматривает тему:

Показать сообщения:    

Текущее время: Сегодня 10:50

Часовой пояс: GMT



Вы не можете начинать темы
Вы не можете отвечать на сообщения
Вы не можете редактировать свои сообщения
Вы не можете удалять свои сообщения
Вы не можете голосовать в опросах
Вы не можете прикреплять файлы к сообщениям
Вы не можете скачивать файлы