Бюро находок (1982-1984) DVDRip от New-Team

 
Автор Сообщение

Белочка ®

Пол:

Стаж: 5 лет 1 месяц

Сообщений: 2089



Награды: 1 (Подробнее)

Girls (Количество: 1)
Торрент-статистика

Создавать темы 02-Ноя-2014 21:47

[Цитировать]

Страна: СССР
Жанр: мультфильм, короткометражка, комедия, семейный
Год выпуска: 1982-1984
Продолжительность: серия ~ 8 минут
Перевод: не требуется
Оригинальная аудиодорожка: русский
Cубтитры: нет
Режиссеры: Олег Чуркин, Борис Акулиничев
Роли озвучивали:
Петр Вишняков, Георгий Вицин, Н. Бочкарев, Клара Румянова...
Описание:
О приключениях бездомного пса Тишки, который в Бюро находок стал опытным детективом...- -Исходник: DVD5 R5
Тип релиза: DVDRip
Контейнер: AVI
Видео: 672х512, (4:3), 25 fps, XviD ~ 2022 kbps avg, 0.235 bit/pixel
Аудио: 48 kHz, Dolby Digital AC3 5.1, 448 kbps

MediaInfo

Общее
Полное имя : Byuro.nahodok.1982.DVDRip_[New-team]_by_AVP_Studio1.avi
Формат : AVI
Формат/Информация : Audio Video Interleave
Размер файла : 165 Мбайт
Продолжительность : 9 м. 17 с.
Общий поток : 2479 Кбит/сек
Программа кодирования : VirtualDubModRus 1.5.10.2 (build 2542/release)
Библиотека кодирования : VirtualDubMod build 2542/release
Видео
Идентификатор : 0
Формат : MPEG-4 Visual
Профиль формата : Advanced Simple@L5
Параметр BVOP формата : 1
Параметр QPel формата : Нет
Параметр GMC формата : Без точки перехода
Параметр матрицы формата : Выборочная
Идентификатор кодека : XVID
Идентификатор кодека/Подсказка : XviD
Продолжительность : 9 м. 17 с.
Битрейт : 2022 Кбит/сек
Ширина : 672 пикселя
Высота : 512 пикселей
Соотношение сторон : 4:3
Частота кадров : 25,000 кадров/сек
Цветовое пространство : YUV
Субдискретизация насыщенности : 4:2:0
Битовая глубина : 8 бит
Тип развёртки : Прогрессивная
Метод сжатия : С потерями
Бит/(Пиксели*Кадры) : 0.235
Размер потока : 134 Мбайт (82%)
Библиотека кодирования : XviD 73
Аудио
Идентификатор : 1
Формат : AC-3
Формат/Информация : Audio Coding 3
Расширение режима : CM (complete main)
Параметр Endianness формата : Big
Идентификатор кодека : 2000
Продолжительность : 9 м. 17 с.
Вид битрейта : Постоянный
Битрейт : 448 Кбит/сек
Каналы : 6 каналов
Расположение каналов : Front: L C R, Side: L R, LFE
Частота : 48,0 КГц
Битовая глубина : 16 бит
Метод сжатия : С потерями
Задержка видео : 16 мс.
Размер потока : 29,8 Мбайт (18%)
Выравнивание : Разделение по промежуткам
Продолжительность промежутка : 40 мс. (1,00 видеокадр)
Время предзагрузки промежутка : 500 мс

Скриншоты

[Профиль] [ЛС]
Кто просматривает тему:

Показать сообщения:    

Текущее время: Сегодня 15:59

Часовой пояс: GMT



Вы не можете начинать темы
Вы не можете отвечать на сообщения
Вы не можете редактировать свои сообщения
Вы не можете удалять свои сообщения
Вы не можете голосовать в опросах
Вы не можете прикреплять файлы к сообщениям
Вы не можете скачивать файлы