Бэтмен / Batman: The Animated Series / Сезоны: 1, 2 / Серии: 2-85 из 85 (Алан Бёрнет / Alan Burnett, Брюс Тимм / Bruce Timm) [1992-1995, Детектив, DVB] Dub (СТС)

 
Автор Сообщение

Russian Mafia ®

Пол:

Стаж: 1 год 8 месяцев

Сообщений: 4257



Награды: 10 (Подробнее)

Mega Seeder 1 (Количество: 1) Mega Seeder 3 (Количество: 1) Top Releaser 4 (Количество: 1)
Торрент-статистика

Создавать темы 25-Сен-2015 12:30

[Цитировать]

Бэтмен / Batman: The Animated Series Страна: США
Жанр: Детектив
Продолжительность: 00:19:51
Год выпуска: 1992-1995
Перевод: Профессиональный (полное дублирование) [Селена Интернешнл по заказу СТС]
Русские субтитры: нет
Режиссёры: Алан Бёрнет / Alan Burnett, Брюс Тимм / Bruce Timm
Роли озвучивали: Кевин Сонрой / Kevin Conroy, Боб Хатингс / Bob Hastings, Лорен Лестер / Loren Lester, Джейн Алан / Jane Alan и другие.
Описание: 5 сентября 1992 г. Бэт-вселенная была заново рождена: на американских телеэкранах состоялась премьера анимационного шоу “Бэтмен” - Batman: The Animated Series, известного также как BTAS. Созданный мультипликаторами из кинокомпании “Уорнер Бразерс” на волне популярности фильмов Тима Бертона, сериал представлял собой исключительно удачный синтез лучших сюжетных мотивов и стилистических решений многолетней комиксовой и кинематографической “бэтменианы”; даже самые привередливые фаны чувствовали, что на этот раз все сделано “так, как надо”. BTAS завоевал такую популярность, что повлиял на текущую последовательность историй DC, подарив ей новых персонажей и изменив имидж многих уже существовавших...
Качество: DVB
Формат: MPG
Видео: MPEG2, 720x576, 25.000 fps, 2.660 Kbps
Аудио: MP2, 48.0 KHz, 2 ch, 192 Kbps
Субтитры: Отсутствуют

Список серий

Сезон 1:
02. Christmas with the Joker
03. Nothing to Fear
04. The Last Laugh
05. Pretty Poison
06. The Underdwellers
07. P.O.V.
08. The Forgotten
09. Be a Clown
10. Two-Face, Part 1
11. Two-Face, Part 2
12. It's Never Too Late
13. I've Got Batman in My Basement
14. Heart of Ice
15. The Cat and the Claw, Part 1
16. The Cat and the Claw, Part 2
17. See No Evil
18. Beware the Gray Ghost
19. Prophecy of Doom
20. Feat of Clay, Part 1
21. Feat of Clay, Part 2
22. Joker's Favor
23. Vendetta
24. Fear of Victory
25. The Clock King
26. Appointment in Crime Alley
27. Mad as a Hatter
28. Dreams in Darkness
29. Eternal Youth
30. Perchance to Dream
31. The Cape and Cowl Conspiracy
32. Robin's Reckoning, Part 1
33. Robin's Reckoning, Part 2
34. The Laughing Fish
35. Night of the Ninja
36. Cat Scratch Fever
37. The Strange Secret of Bruce Wayne
38. Heart of Steel, Part 1
39. Heart of Steel, Part 2
40. If You're So Smart, Why Aren't You Rich?
41. Joker's Wild
42. Tyger, Tyger
43. Moon of the Wolf
44. Day of the Samurai
45. Terror in the Sky
46. Almost Got 'Im
47. Birds of a Feather
48. What Is Reality?
49. I Am the Night
50. Off Balance
51. The Man Who Killed Batman
52. Mudslide
53. Paging the Crime Doctor
54. Zatanna
55. The Mechanic
56. Harley and Ivy
57. Shadow of the Bat, Part 1
58. Shadow of the Bat, Part 2
59. Blind as a Bat
60. The Demon's Quest, Part 1
61. The Demon's Quest, Part 2
62. His Silicon Soul
63. Fire from Olympus
64. Read My Lips
65. The Worry Men
Сезон 2:
01. Sideshow
02. A Bullet for Bullock
03. Trial
04. Avatar
05. House & Garden
06. The Terrible Trio
07. Harlequinade
08. Time Out of Joint
09. Catwalk
10. Bane
11. Baby-Doll
12. The Lion and the Unicorn
13. Showdown
14. Riddler's Reform
15. Second Chance
16. Harley's Holiday
17. Lock-Up
18. Make 'Em Laugh
19. Deep Freeze
20. Batgirl Returns

Внимание! Раздача ведётся путём добавления новых серий

Внимание! Раздача ведётся путём добавления новых серий; при каждом добавлении создаётся новый торрент. Чтобы начать докачку новой серии, пользователям необходимо сделать следующее:
(1) остановить скачивание,
(2) удалить старый торрент у себя из клиента (старые серии удалять не надо),
(3) скачать новый торрент и запустить его у себя в клиенте вместо старого, при этом указать клиенту путь в старую папку куда и должно происходить скачивание новых серий.
Ваш клиент при этом должен произвести хеширование (проверку) старой папки (если не производит сам - помогите ему сделать это), и будет докачивать только те серии которых у вас ещё нет. Старые серии при этом не удаляются, а продолжают раздаваться!
Eсли вы уже удалили старые серии, то предотвратить повторную закачку старых серий можно, отжав галочку в соответствующих местах при запуске нового торрента. По возможности, желательно не удалять старые серии как можно дольше чтобы релизёр не столько продолжал раздавать старые серии, а смог сконцентрироваться на новых.

Подробные технические данные

GeneralComplete name : D:\IPTV\Бэтмен\Batman.s02.e14.mpgFormat : MPEG-PSFile size : 414 MiBDuration : 19mn 52sOverall bit rate mode : VariableOverall bit rate : 2 910 Kbps
VideoID : 224 (0xE0)Format : MPEG VideoFormat version : Version 2Format profile : Main@MainFormat settings, BVOP : YesFormat settings, Matrix : CustomFormat settings, GOP : VariableDuration : 19mn 52sBit rate mode : VariableBit rate : 2 660 KbpsMaximum bit rate : 15.0 MbpsWidth : 720 pixelsHeight : 576 pixelsDisplay aspect ratio : 4:3Frame rate : 25.000 fpsStandard : PALColor space : YUVChroma subsampling : 4:2:0Bit depth : 8 bitsScan type : InterlacedScan order : Top Field FirstCompression mode : LossyBits/(Pixel*Frame) : 0.257Stream size : 378 MiB (91%)
AudioID : 192 (0xC0)Format : MPEG AudioFormat version : Version 1Format profile : Layer 2Duration : 19mn 52sBit rate mode : ConstantBit rate : 192 KbpsChannel(s) : 2 channelsSampling rate : 48.0 KHzCompression mode : LossyDelay relative to video : 19msStream size : 27.3 MiB (7%)

Скриншоты

[Профиль] [ЛС]
Кто просматривает тему:

Форум Тема Автор Размер
Action LEGO Batman - Trilogy / ЛЕГО Бэтмен - Трилогия [RePack] [ENG / ENG] (2008) TorrentFilm 6.47 GB
Action LEGO Batman 3: Beyond Gotham / ЛЕГО Бэтмен 3: Покидая Готэм [RiP] [RUS / ENG] (2014) TorrentFilm 6.89 GB
Зарубежные мультфильмы Безграничный Бэтмен: Животные инстинкты / Batman Unlimited: Animal Instincts (2015) BDRemux 1080p Russian Mafia 12.68 GB
Зарубежные мультфильмы Безграничный Бэтмен: Хаос / Batman Unlimited: Monster Mayhem (2015) BDRip 720p | iTunes Russian Mafia 2.86 GB
Зарубежные мультфильмы Безграничный Бэтмен: Хаос / Batman Unlimited: Monster Mayhem (2015) HDRip | iTunes достали все 1.37 GB
Зарубежные мультсериалы Берегитесь Бэтмена / Beware the Batman [01x01-26 из 26] (2013-2014) WEB-DL 1080p | L1 Russian Mafia 21.41 GB
Зарубежные мультсериалы Бэтмен / Batman: The Animated Series / Сезон 1 / Серии 1-56 из 65 (Алан Бёрнет, Брюс Тимм / Alan Burnett, Bruce Timm) [1992, мультсериал, фантастика, детектив, DVDRip] Dub + Original (Eng) Russian Mafia 16.51 GB
Зарубежные мультфильмы Бэтмен против Робина / Batman vs. Robin (Джей Олива) [2015, Мультфильм, боевик, приключения] HDRip BOSS 1.37 GB
Показать сообщения:    

Текущее время: Сегодня 00:37

Часовой пояс: GMT



Вы не можете начинать темы
Вы не можете отвечать на сообщения
Вы не можете редактировать свои сообщения
Вы не можете удалять свои сообщения
Вы не можете голосовать в опросах
Вы не можете прикреплять файлы к сообщениям
Вы не можете скачивать файлы