Бэтмен против Супермена: На заре справедливости / Batman v Superman: Dawn of Justice (2016) BDRip 720p от NNNB | Ultimate Edition | D, A

 
Автор Сообщение

Russian Mafia ®

Пол:

Стаж: 1 год 8 месяцев

Сообщений: 4257



Награды: 10 (Подробнее)

Mega Seeder 3 (Количество: 1) Mega Seeder 2 (Количество: 1) Mega Seeder 1 (Количество: 1)
Торрент-статистика

Создавать темы 20-Июл-2016 19:43

[Цитировать]

Бэтмен против Супермена: На заре справедливости / Batman v Superman: Dawn of Justice
«Who will win?»
Русское название: Бэтмен против Супермена: На заре справедливости
Оригинальное название: Batman v Superman: Dawn of Justice
Год выпуска: 2016
Жанр: фантастика, боевик, приключения
Выпущено: США
Режиссер: Зак Снайдер
В ролях: Генри Кавилл , Бен Аффлек , Галь Гадот , Эми Адамс , Джесси Айзенберг , Джереми Айронс , Дайан Лэйн , Лоренс Фишбёрн , Холли Хантер , Скут МакНэри , Каллэн Мулвей , Тао Окамото
Перевод: Дублированный - [iTunes + вставки авторский одноголосый А.Матвеев], Авторский одноголосый [А.Матвеев]

Сюжет фильма:
Опасаясь, что действия богоподобного супергероя так и останутся бесконтрольными, грозный и могущественный страж Готэм Сити бросает вызов самому почитаемому в наши дни спасителю Метрополиса, в то время как весь остальной мир решает, какой герой ему по-настоящему нужен. И пока Бэтмен и Супермен пребывают в состоянии войны друг с другом, возникает новая угроза, которая ставит человечество под самую большую опасность, с которой оно когда-либо сталкивалось.

Качество: BDRip 720p
Формат: AVC (библиотека кодирования x.264)
Контейнер (Расширение): MKV
Видео: 1280x534, 7250 Кбит/сек, 23,976 кадр/сек, 0,442 Бит/[Пиксели*Кадры]
Аудио №1: русский / AC3 / 5.1 / 48 kHz / 384 kbps / 16 bit |Дублированный - [iTunes + вставки авторский одноголосый А.Матвеев]|
Аудио №2: русский / AC3 / 5.1 / 48 kHz / 640 kbps / 16 bit |Авторский одноголосый А.Матвеев|
Аудио №3: английский / AC3 / 5.1 / 48 kHz / 640 kbps /
Субтитры: русские (Forced на расширенные места), русские (Notabenoid), русские (Матвеев), русские (Jet), английские, английские (SDH)
Навигация по главам(Чаптеры): есть
Продолжительность: 03:02:33Автор рипа: Сообщество: Звуковые дорожки и переводы:

MediaInfo

Format : Matroska
Format version : Version 2
File size : 11.4 GiB
Duration : 3h 2mn
Overall bit rate : 8 908 Kbps
Movie name : Batman v Superman: Dawn of Justice.(2016).BDRip.720p.[denis100].[Extended Cut]
Encoded date : UTC 2016-07-18 17:30:43
Writing application : mkvmerge v5.8.0 ('No Sleep / Pillow') built on Sep 2 2012 15:37:04
Writing library : libebml v1.2.3 + libmatroska v1.3.0
Video
ID : 1
Format : AVC
Format/Info : Advanced Video Codec
Format profile : High@L4.1
Format settings, CABAC : Yes
Format settings, ReFrames : 11 frames
Codec ID : V_MPEG4/ISO/AVC
Duration : 3h 2mn
Bit rate : 7 250 Kbps
Width : 1 280 pixels
Height : 534 pixels
Display aspect ratio : 2.40:1
Frame rate : 23.976 fps
Color space : YUV
Chroma subsampling : 4:2:0
Bit depth : 8 bits
Scan type : Progressive
Bits/(Pixel*Frame) : 0.442
Stream size : 9.01 GiB (79%)
Title : Batman v Superman: Dawn of Justice.(2016).BDRip.720p.[denis100].[Extended Cut]
Writing library : x264 core 148 r2692 64f4e24
Encoding settings : cabac=1 / ref=11 / deblock=1:-3:-3 / analyse=0x3:0x133 / me=umh / subme=11 / psy=1 / psy_rd=1.00:0.10 / mixed_ref=1 / me_range=32 / chroma_me=1 / trellis=2 / 8x8dct=1 / cqm=0 / deadzone=21,11 / fast_pskip=0 / chroma_qp_offset=-3 / threads=6 / lookahead_threads=1 / sliced_threads=0 / nr=0 / decimate=1 / interlaced=0 / bluray_compat=0 / constrained_intra=0 / bframes=10 / b_pyramid=2 / b_adapt=2 / b_bias=0 / direct=3 / weightb=1 / open_gop=0 / weightp=2 / keyint=240 / keyint_min=23 / scenecut=40 / intra_refresh=0 / rc=2pass / mbtree=0 / bitrate=7250 / ratetol=1.0 / qcomp=0.60 / qpmin=0 / qpmax=69 / qpstep=4 / cplxblur=20.0 / qblur=0.5 / ip_ratio=1.40 / pb_ratio=1.30 / aq=1:0.80
Language : English
Default : Yes
Forced : No
Audio #1
ID : 2
Format : AC-3
Format/Info : Audio Coding 3
Mode extension : CM (complete main)
Codec ID : A_AC3
Duration : 3h 2mn
Bit rate mode : Constant
Bit rate : 384 Kbps
Channel(s) : 6 channels
Channel positions : Front: L C R, Side: L R, LFE
Sampling rate : 48.0 KHz
Bit depth : 16 bits
Compression mode : Lossy
Stream size : 501 MiB (4%)
Title : Дубляж + Матвеев
Language : Russian
Default : Yes
Forced : No
Audio #2
ID : 3
Format : AC-3
Format/Info : Audio Coding 3
Mode extension : CM (complete main)
Codec ID : A_AC3
Duration : 3h 2mn
Bit rate mode : Constant
Bit rate : 640 Kbps
Channel(s) : 6 channels
Channel positions : Front: L C R, Side: L R, LFE
Sampling rate : 48.0 KHz
Bit depth : 16 bits
Compression mode : Lossy
Stream size : 836 MiB (7%)
Title : AVO, Матвеев
Language : Russian
Default : No
Forced : No
Audio #3
ID : 4
Format : AC-3
Format/Info : Audio Coding 3
Mode extension : CM (complete main)
Codec ID : A_AC3
Duration : 3h 2mn
Bit rate mode : Constant
Bit rate : 640 Kbps
Channel(s) : 6 channels
Channel positions : Front: L C R, Side: L R, LFE
Sampling rate : 48.0 KHz
Bit depth : 16 bits
Compression mode : Lossy
Stream size : 836 MiB (7%)
Language : English
Default : No
Forced : No
Text #1
ID : 5
Format : UTF-8
Codec ID : S_TEXT/UTF8
Codec ID/Info : UTF-8 Plain Text
Title : Forced
Language : Russian
Default : Yes
Forced : No
Text #2
ID : 6
Format : UTF-8
Codec ID : S_TEXT/UTF8
Codec ID/Info : UTF-8 Plain Text
Title : Notabenoid
Language : Russian
Default : No
Forced : No
Text #3
ID : 7
Format : UTF-8
Codec ID : S_TEXT/UTF8
Codec ID/Info : UTF-8 Plain Text
Title : Матвеев
Language : Russian
Default : No
Forced : No
Text #4
ID : 8
Format : UTF-8
Codec ID : S_TEXT/UTF8
Codec ID/Info : UTF-8 Plain Text
Title : Jet
Language : Russian
Default : No
Forced : No
Text #5
ID : 9
Format : UTF-8
Codec ID : S_TEXT/UTF8
Codec ID/Info : UTF-8 Plain Text
Language : English
Default : No
Forced : No
Text #6
ID : 10
Format : UTF-8
Codec ID : S_TEXT/UTF8
Codec ID/Info : UTF-8 Plain Text
Title : SDH
Language : English
Default : No
Forced : No
Menu
00:00:00.000 : :00:00:00.000
00:10:10.652 : :00:10:10.652
00:27:00.661 : :00:27:00.661
00:37:49.225 : :00:37:49.225
00:46:54.520 : :00:46:54.520
01:02:04.971 : :01:02:04.971
01:14:10.613 : :01:14:10.613
01:28:07.115 : :01:28:07.115
01:41:46.642 : :01:41:46.642
01:53:52.617 : :01:53:52.617
02:02:58.079 : :02:02:58.079
02:15:04.054 : :02:15:04.054
02:27:55.075 : :02:27:55.075
02:36:51.444 : :02:36:51.444
02:48:27.514 : :02:48:27.514
02:54:43.765 : :02:54:43.765

Скриншоты

[Профиль] [ЛС]
Кто просматривает тему:

Форум Тема Автор Размер
Action LEGO Batman - Trilogy / ЛЕГО Бэтмен - Трилогия [RePack] [ENG / ENG] (2008) TorrentFilm 6.47 GB
Action LEGO Batman 3: Beyond Gotham / ЛЕГО Бэтмен 3: Покидая Готэм [RiP] [RUS / ENG] (2014) TorrentFilm 6.89 GB
Зарубежные мультфильмы Безграничный Бэтмен: Животные инстинкты / Batman Unlimited: Animal Instincts (2015) BDRemux 1080p Russian Mafia 12.68 GB
Зарубежные мультфильмы Безграничный Бэтмен: Хаос / Batman Unlimited: Monster Mayhem (2015) BDRip 720p | iTunes Russian Mafia 2.86 GB
Зарубежные мультфильмы Безграничный Бэтмен: Хаос / Batman Unlimited: Monster Mayhem (2015) HDRip | iTunes достали все 1.37 GB
Зарубежные мультсериалы Берегитесь Бэтмена / Beware the Batman [01x01-26 из 26] (2013-2014) WEB-DL 1080p | L1 Russian Mafia 21.41 GB
Зарубежные мультсериалы Бэтмен / Batman: The Animated Series / Сезон 1 / Серии 1-56 из 65 (Алан Бёрнет, Брюс Тимм / Alan Burnett, Bruce Timm) [1992, мультсериал, фантастика, детектив, DVDRip] Dub + Original (Eng) Russian Mafia 16.51 GB
Зарубежные мультсериалы Бэтмен / Batman: The Animated Series / Сезоны: 1, 2 / Серии: 2-85 из 85 (Алан Бёрнет / Alan Burnett, Брюс Тимм / Bruce Timm) [1992-1995, Детектив, DVB] Dub (СТС) Russian Mafia 36.69 GB
Показать сообщения:    

Текущее время: Сегодня 04:31

Часовой пояс: GMT



Вы не можете начинать темы
Вы не можете отвечать на сообщения
Вы не можете редактировать свои сообщения
Вы не можете удалять свои сообщения
Вы не можете голосовать в опросах
Вы не можете прикреплять файлы к сообщениям
Вы не можете скачивать файлы