Бэтмен против Супермена: На заре справедливости / Batman v Superman:Dawn of Justice (2016) BDRip 1080p | Расширенная версия | D

 
Автор Сообщение

BOSS ®

Пол:

Стаж: 2 года 1 месяц

Сообщений: 3748

Откуда: ODESSA



Награды: 20 (Подробнее)

Top Keeper 3 (Количество: 1) Top Releaser 2 (Количество: 1) Top Seeder 2 (Количество: 1)
Торрент-статистика

Создавать темы 09-Июл-2016 06:41

[Цитировать]

Информация о фильме
Название: Бэтмен против Супермена: На заре справедливости
Оригинальное название: Batman v Superman: Dawn of Justice
Год выхода: 2016
Жанр: Фантастика, фэнтези, боевик, приключения
Режиссер: Зак Снайдер
В ролях: Генри Кавилл, Бен Аффлек, Галь Гадот, Эми Адамс, Джесси Айзенберг, Джереми Айронс, Дайан Лэйн, Лоренс Фишбёрн, Холли Хантер, Скут МакНэйри, Каллэн Мулвей, Тао Окамото, Брэндон Спинк, Лорен Коэн, Алан Д. Первин, Марк Эдвард Тейлор, Хью Магвайр, Майкл Шеннон, Ханна Дворкин, Тиффани Л. Эддисон
О фильме:
Битва между Кал-Элом и генералом Зодом наносит множество разрушений Метрополису и соседнему Готэм Сити. Башня Уэйн-тауэр - уничтожена вместе с сотнями невинных людей. Это становится началом конфликта между Последним Сыном Криптона и Темным Рыцарем Готэма, богом и человеком. Тем временем, сумасшедший гений Лекс Лютор готовит оружие Судного дня, способное уничтожить не только богоподобного Супермена, но и все человечество.

Страна: США
Студия: Atlas Entertainment, DC Comics, DC Entertainment, Warner Bros. Pictures
Продолжительность: 03:02:31
Перевод: Дублированный | iTunes
Файл
Кодек: x264
Качество: BDRip 1080p
Видео: 1920x800, 11.7 Mbit/s, 23.976 fps
Звук:
Аудио #01: 48 kHz, AC3, 5.1, 384 Kbps | Дублированный, iTunes |
Аудио #02: 48 kHz, AC3, 5.1, 640 kbps | Оригинал |
Субтитры: Русские (forced,full), английские (srt,SDH)

MI

General
Unique ID : 190337796333889498715824845345413056428 (0x8F31B9E50504240DBFFDE1FF2886C7AC)
Complete name : F:VideoНовая папкаBatman.v.Superman.Dawn.of.Justice.2016.Extended.Ultimate.Edition...BDRip.1080p.ExKinoRay.mkv
Format : Matroska
Format version : Version 4 / Version 2
File size : 16.2 GiB
Duration : 3h 2mn
Overall bit rate : 12.7 Mbps
Movie name : Batman.v.Superman.Dawn.of.Justice.2016.Extended.Ultimate.Edition...BDRip.1080p.ExKinoRay
Encoded date : UTC 2016-07-09 01:10:19
Writing application : mkvmerge v8.3.0 ('Over the Horizon') 64bit
Writing library : libebml v1.3.1 + libmatroska v1.4.2
Video
ID : 1
Format : AVC
Format/Info : Advanced Video Codec
Format profile : High@L4.1
Format settings, CABAC : Yes
Format settings, ReFrames : 5 frames
Codec ID : V_MPEG4/ISO/AVC
Duration : 3h 2mn
Bit rate : 11.7 Mbps
Width : 1 920 pixels
Height : 800 pixels
Display aspect ratio : 2.40:1
Frame rate mode : Constant
Frame rate : 23.976 (24000/1001) fps
Color space : YUV
Chroma subsampling : 4:2:0
Bit depth : 8 bits
Scan type : Progressive
Bits/(Pixel*Frame) : 0.318
Stream size : 14.9 GiB (92%)
Writing library : x264 core 146 r2538 121396c
Encoding settings : cabac=1 / ref=5 / deblock=1:-3:-3 / analyse=0x3:0x133 / me=tesa / subme=11 / psy=1 / psy_rd=1.04:0.00 / mixed_ref=1 / me_range=32 / chroma_me=1 / trellis=2 / 8x8dct=1 / cqm=0 / deadzone=21,11 / fast_pskip=0 / chroma_qp_offset=-2 / threads=60 / lookahead_threads=6 / sliced_threads=0 / nr=0 / decimate=0 / interlaced=0 / bluray_compat=0 / constrained_intra=0 / bframes=12 / b_pyramid=2 / b_adapt=2 / b_bias=0 / direct=3 / weightb=1 / open_gop=0 / weightp=2 / keyint=240 / keyint_min=23 / scenecut=40 / intra_refresh=0 / rc_lookahead=150 / rc=crf / mbtree=0 / crf=19.0 / qcomp=0.60 / qpmin=0 / qpmax=69 / qpstep=4 / vbv_maxrate=62500 / vbv_bufsize=78125 / crf_max=0.0 / nal_hrd=none / filler=0 / ip_ratio=1.40 / pb_ratio=1.30 / aq=1:0.80
Language : English
Default : Yes
Forced : No
Audio #1
ID : 2
Format : AC-3
Format/Info : Audio Coding 3
Mode extension : CM (complete main)
Format settings, Endianness : Big
Codec ID : A_AC3
Duration : 3h 2mn
Bit rate mode : Constant
Bit rate : 384 Kbps
Channel(s) : 6 channels
Channel positions : Front: L C R, Side: L R, LFE
Sampling rate : 48.0 KHz
Frame rate : 31.250 fps (1536 spf)
Compression mode : Lossy
Stream size : 501 MiB (3%)
Language : Russian
Default : Yes
Forced : No
Audio #2
ID : 3
Format : AC-3
Format/Info : Audio Coding 3
Mode extension : CM (complete main)
Format settings, Endianness : Big
Codec ID : A_AC3
Duration : 3h 2mn
Bit rate mode : Constant
Bit rate : 640 Kbps
Channel(s) : 6 channels
Channel positions : Front: L C R, Side: L R, LFE
Sampling rate : 48.0 KHz
Frame rate : 31.250 fps (1536 spf)
Compression mode : Lossy
Stream size : 836 MiB (5%)
Language : English
Default : No
Forced : No
Text #1
ID : 4
Format : UTF-8
Codec ID : S_TEXT/UTF8
Codec ID/Info : UTF-8 Plain Text
Duration : 2h 53mn
Bit rate : 19 bps
Count of elements : 431
Stream size : 24.5 KiB (0%)
Title : Forced
Language : Russian
Default : Yes
Forced : No
Text #2
ID : 5
Format : UTF-8
Codec ID : S_TEXT/UTF8
Codec ID/Info : UTF-8 Plain Text
Duration : 2h 53mn
Bit rate : 66 bps
Count of elements : 1588
Stream size : 84.8 KiB (0%)
Title : [NotaBenoid]
Language : Russian
Default : No
Forced : No
Text #3
ID : 6
Format : UTF-8
Codec ID : S_TEXT/UTF8
Codec ID/Info : UTF-8 Plain Text
Duration : 2h 53mn
Bit rate : 39 bps
Count of elements : 1538
Stream size : 50.4 KiB (0%)
Title : Full
Language : English
Default : No
Forced : No
Text #4
ID : 7
Format : UTF-8
Codec ID : S_TEXT/UTF8
Codec ID/Info : UTF-8 Plain Text
Duration : 2h 53mn
Bit rate : 46 bps
Count of elements : 1913
Stream size : 58.5 KiB (0%)
Title : SDH
Language : English
Default : No
Forced : No
Menu
00:00:00.000 : en:00:00:00.000
00:10:10.652 : en:00:10:10.652
00:27:00.661 : en:00:27:00.661
00:37:49.225 : en:00:37:49.225
00:46:54.520 : en:00:46:54.520
01:02:04.971 : en:01:02:04.971
01:14:10.613 : en:01:14:10.613
01:28:07.115 : en:01:28:07.115
01:41:46.642 : en:01:41:46.642
01:53:52.617 : en:01:53:52.617
02:02:58.079 : en:02:02:58.079
02:15:04.054 : en:02:15:04.054
02:27:55.075 : en:02:27:55.075
02:36:51.444 : en:02:36:51.444
02:48:27.514 : en:02:48:27.514
02:54:43.765 : en:02:54:43.765

Примечание

На расширенных местах, многоголосое закадровое озвучивание.

Скриншоты

[Профиль] [ЛС]
Кто просматривает тему:

Форум Тема Автор Размер
Action LEGO Batman - Trilogy / ЛЕГО Бэтмен - Трилогия [RePack] [ENG / ENG] (2008) TorrentFilm 6.47 GB
Action LEGO Batman 3: Beyond Gotham / ЛЕГО Бэтмен 3: Покидая Готэм [RiP] [RUS / ENG] (2014) TorrentFilm 6.89 GB
Зарубежные мультфильмы Безграничный Бэтмен: Животные инстинкты / Batman Unlimited: Animal Instincts (2015) BDRemux 1080p Russian Mafia 12.68 GB
Зарубежные мультфильмы Безграничный Бэтмен: Хаос / Batman Unlimited: Monster Mayhem (2015) BDRip 720p | iTunes Russian Mafia 2.86 GB
Зарубежные мультфильмы Безграничный Бэтмен: Хаос / Batman Unlimited: Monster Mayhem (2015) HDRip | iTunes достали все 1.37 GB
Зарубежные мультсериалы Берегитесь Бэтмена / Beware the Batman [01x01-26 из 26] (2013-2014) WEB-DL 1080p | L1 Russian Mafia 21.41 GB
Зарубежные мультсериалы Бэтмен / Batman: The Animated Series / Сезон 1 / Серии 1-56 из 65 (Алан Бёрнет, Брюс Тимм / Alan Burnett, Bruce Timm) [1992, мультсериал, фантастика, детектив, DVDRip] Dub + Original (Eng) Russian Mafia 16.51 GB
Зарубежные мультсериалы Бэтмен / Batman: The Animated Series / Сезоны: 1, 2 / Серии: 2-85 из 85 (Алан Бёрнет / Alan Burnett, Брюс Тимм / Bruce Timm) [1992-1995, Детектив, DVB] Dub (СТС) Russian Mafia 36.69 GB
Показать сообщения:    

Текущее время: Сегодня 23:30

Часовой пояс: GMT



Вы не можете начинать темы
Вы не можете отвечать на сообщения
Вы не можете редактировать свои сообщения
Вы не можете удалять свои сообщения
Вы не можете голосовать в опросах
Вы не можете прикреплять файлы к сообщениям
Вы не можете скачивать файлы