Бэтмен против Супермена: На заре справедливости / Batman v Superman: Dawn of Justice (2016) BDRip 1080p | Расширенная версия | iTunes

 
Автор Сообщение

достали все ®

Пол:

Стаж: 1 год 8 месяцев

Сообщений: 6558



Награды: 12 (Подробнее)

Top Releaser 4 (Количество: 1) Mega Releaser 2 (Количество: 1) Mega Seeder 2 (Количество: 1)
Торрент-статистика

Создавать темы 05-Июл-2016 09:55

[Цитировать]

Бэтмен против Супермена: На заре справедливости / Batman v Superman: Dawn of Justice
Страна: США
Производство: Warner Bros. Pictures, DC Entertainment, Cruel & Unusual Films, Atlas Entertainment
Год выпуска: 2016
Жанр: фантастика, фэнтези, боевик, приключения
Продолжительность: 03:02:34
Режиссер: Зак Снайдер
Автор сценария: Крис Террио, Дэвид С. Гойер, Боб Кейн
В ролях: Генри Кавилл, Бен Аффлек, Галь Гадот, Эми Адамс, Джесси Айзенберг, Джереми Айронс, Дайан Лэйн, Лоренс Фишбёрн
Описание: Опасаясь, что действия богоподобного супергероя так и останутся бесконтрольными, грозный и могущественный страж Готэм Сити бросает вызов самому почитаемому в наши дни спасителю Метрополиса, в то время как весь остальной мир решает, какой герой ему по-настоящему нужен. И пока Бэтмен и Супермен пребывают в состоянии войны друг с другом, возникает новая угроза, которая ставит человечество под самую большую опасность, с которой оно когда-либо сталкивалось...

Перевод: Профессиональный (дублированный) | iTunes
Субтитры: русские (NotaBenoid - вшитые на места без перевода и на надписи), английские-Качество: BDRip 1080p
Формат: МКV
Видео кодек: AVC
Аудио кодек: АС3
Видео: 1920x800 (2.40:1), 23.976 fps, MPEG-4 AVC ~8 791 kbps avg
Аудио №1: 48 kHz, AC3 Dolby Digital, 3/2 (L,C,R,l,r) + LFE ch, ~384 kbps | RUS
Аудио №2: 48 kHz, AC3 Dolby Digital, 3/2 (L,C,R,l,r) + LFE ch, ~640 kbps | ENG
Формат субтитров: UTF-8 Plain Text
Дата премьеры (мир): 12 марта 2016
Дата премьеры (РФ): 24 марта 2016, «Каро-Премьер»

Media Info

General
Unique ID : 252627842578565104505915653017054724863 (0xBE0E5A4949F75461B7B0F2059D53C2FF)
Complete name : Batman.v.Superman.Dawn.of.Justice.2016.EXTENDED.1080p.BluRay.x264-NNMCLUB.mkv
Format : Matroska
Format version : Version 4 / Version 2
File size : 12.5 GiB
Duration : 3h 2mn
Overall bit rate : 9 813 Kbps
Encoded date : UTC 2016-07-05 03:12:09
Writing application : mkvmerge v9.2.0 ('Photograph') 64bit
Writing library : libebml v1.3.3 + libmatroska v1.4.4
Video
ID : 1
Format : AVC
Format/Info : Advanced Video Codec
Format profile : High@L4.1
Format settings, CABAC : Yes
Format settings, ReFrames : 5 frames
Codec ID : V_MPEG4/ISO/AVC
Duration : 3h 2mn
Bit rate : 8 791 Kbps
Width : 1 920 pixels
Height : 800 pixels
Display aspect ratio : 2.40:1
Frame rate mode : Constant
Frame rate : 23.976 fps
Color space : YUV
Chroma subsampling : 4:2:0
Bit depth : 8 bits
Scan type : Progressive
Bits/(Pixel*Frame) : 0.239
Stream size : 11.2 GiB (90%)
Title : NNMCLUB
Writing library : x264 core 148 r2692 64f4e24
Encoding settings : cabac=1 / ref=5 / deblock=1:0:0 / analyse=0x3:0x133 / me=umh / subme=7 / psy=1 / psy_rd=1.00:0.00 / mixed_ref=1 / me_range=16 / chroma_me=1 / trellis=1 / 8x8dct=1 / cqm=0 / deadzone=21,11 / fast_pskip=0 / chroma_qp_offset=-2 / threads=18 / lookahead_threads=3 / sliced_threads=0 / nr=0 / decimate=1 / interlaced=0 / bluray_compat=0 / constrained_intra=0 / bframes=3 / b_pyramid=2 / b_adapt=1 / b_bias=0 / direct=1 / weightb=1 / open_gop=0 / weightp=2 / keyint=250 / keyint_min=23 / scenecut=40 / intra_refresh=0 / rc_lookahead=40 / rc=2pass / mbtree=1 / bitrate=8791 / ratetol=1.0 / qcomp=0.60 / qpmin=0 / qpmax=69 / qpstep=4 / cplxblur=20.0 / qblur=0.5 / ip_ratio=1.40 / aq=1:1.00
Language : English
Default : Yes
Forced : No
Audio #1
ID : 2
Format : AC-3
Format/Info : Audio Coding 3
Mode extension : CM (complete main)
Format settings, Endianness : Big
Codec ID : A_AC3
Duration : 3h 2mn
Bit rate mode : Constant
Bit rate : 384 Kbps
Channel(s) : 6 channels
Channel positions : Front: L C R, Side: L R, LFE
Sampling rate : 48.0 KHz
Frame rate : 31.250 fps (1536 spf)
Compression mode : Lossy
Stream size : 501 MiB (4%)
Title : iTunes
Language : Russian
Default : Yes
Forced : No
Audio #2
ID : 3
Format : AC-3
Format/Info : Audio Coding 3
Mode extension : CM (complete main)
Format settings, Endianness : Big
Codec ID : A_AC3
Duration : 3h 2mn
Bit rate mode : Constant
Bit rate : 640 Kbps
Channel(s) : 6 channels
Channel positions : Front: L C R, Side: L R, LFE
Sampling rate : 48.0 KHz
Frame rate : 31.250 fps (1536 spf)
Compression mode : Lossy
Stream size : 836 MiB (7%)
Language : English
Default : No
Forced : No
Text #1
ID : 4
Format : UTF-8
Codec ID : S_TEXT/UTF8
Codec ID/Info : UTF-8 Plain Text
Duration : 2h 53mn
Bit rate : 66 bps
Count of elements : 1588
Stream size : 84.7 KiB (0%)
Title : NotaBenoid
Language : Russian
Default : Yes
Forced : Yes
Text #2
ID : 5
Format : UTF-8
Codec ID : S_TEXT/UTF8
Codec ID/Info : UTF-8 Plain Text
Duration : 2h 53mn
Bit rate : 42 bps
Count of elements : 1584
Stream size : 53.9 KiB (0%)
Language : English
Default : No
Forced : No
Menu
00:00:00.000 : en:00:00:00.000
00:10:10.652 : en:00:10:10.652
00:27:00.661 : en:00:27:00.661
00:37:49.225 : en:00:37:49.225
00:46:54.520 : en:00:46:54.520
01:02:04.971 : en:01:02:04.971
01:14:10.613 : en:01:14:10.613
01:28:07.115 : en:01:28:07.115
01:41:46.642 : en:01:41:46.642
01:53:52.617 : en:01:53:52.617
02:02:58.079 : en:02:02:58.079
02:15:04.054 : en:02:15:04.054
02:27:55.075 : en:02:27:55.075
02:36:51.444 : en:02:36:51.444
02:48:27.514 : en:02:48:27.514
02:54:43.765 : en:02:54:43.765

Скриншоты

[Профиль] [ЛС]
Кто просматривает тему:

Форум Тема Автор Размер
Action LEGO Batman - Trilogy / ЛЕГО Бэтмен - Трилогия [RePack] [ENG / ENG] (2008) TorrentFilm 6.47 GB
Action LEGO Batman 3: Beyond Gotham / ЛЕГО Бэтмен 3: Покидая Готэм [RiP] [RUS / ENG] (2014) TorrentFilm 6.89 GB
Зарубежные мультфильмы Безграничный Бэтмен: Животные инстинкты / Batman Unlimited: Animal Instincts (2015) BDRemux 1080p Russian Mafia 12.68 GB
Зарубежные мультфильмы Безграничный Бэтмен: Хаос / Batman Unlimited: Monster Mayhem (2015) BDRip 720p | iTunes Russian Mafia 2.86 GB
Зарубежные мультфильмы Безграничный Бэтмен: Хаос / Batman Unlimited: Monster Mayhem (2015) HDRip | iTunes достали все 1.37 GB
Зарубежные мультсериалы Берегитесь Бэтмена / Beware the Batman [01x01-26 из 26] (2013-2014) WEB-DL 1080p | L1 Russian Mafia 21.41 GB
Зарубежные мультсериалы Бэтмен / Batman: The Animated Series / Сезон 1 / Серии 1-56 из 65 (Алан Бёрнет, Брюс Тимм / Alan Burnett, Bruce Timm) [1992, мультсериал, фантастика, детектив, DVDRip] Dub + Original (Eng) Russian Mafia 16.51 GB
Зарубежные мультсериалы Бэтмен / Batman: The Animated Series / Сезоны: 1, 2 / Серии: 2-85 из 85 (Алан Бёрнет / Alan Burnett, Брюс Тимм / Bruce Timm) [1992-1995, Детектив, DVB] Dub (СТС) Russian Mafia 36.69 GB
Показать сообщения:    

Текущее время: Сегодня 01:08

Часовой пояс: GMT



Вы не можете начинать темы
Вы не можете отвечать на сообщения
Вы не можете редактировать свои сообщения
Вы не можете удалять свои сообщения
Вы не можете голосовать в опросах
Вы не можете прикреплять файлы к сообщениям
Вы не можете скачивать файлы