Бэтмен против Супермена: На заре справедливости / Batman v Superman: Dawn of Justice (2016) WEB-DLRip | ULTIMATE EDITION| D

 
Автор Сообщение

ODESSA ®

Пол:

Стаж: 1 год 7 месяцев

Сообщений: 391

Откуда: ODESSA



Награды: Нет

Торрент-статистика

Создавать темы 03-Июл-2016 08:26

[Цитировать]

Информация о фильме
Название: Бэтмен против Супермена: На заре справедливости
Оригинальное название: Batman v Superman: Dawn of Justice
Год выпуска: 2016
Жанр: Фантастика, фэнтези, боевик, приключения
Режиссер: Зак Снайдер
В ролях: Генри Кавилл, Бен Аффлек, Галь Гадот, Джейсон Момоа, Эми Адамс, Джесси Айзенберг, Джеффри Дин Морган, Джена Мэлоун, Эзра Миллер
О фильме: Опасаясь, что действия богоподобного супергероя так и останутся бесконтрольными, грозный и могущественный страж Готэм Сити бросает вызов самому почитаемому в наши дни спасителю Метрополиса, в то время как весь остальной мир решает, какой герой ему по-настоящему нужен. И пока Бэтмен и Супермен пребывают в состоянии войны друг с другом, возникает новая угроза, которая ставит человечество под самую большую опасность, с которой оно когда-либо сталкивалось.

Выпущено: США / Atlas Entertainment, DC Comics, DC Entertainment, RatPac-Dune Entertainment, Warner Bros. Pictures
Продолжительность: 03:02:31
Перевод: Профессиональный (полное дублирование)[iTunes]
Файл
Кодек: х264
Качество: WEB-DLRip
Видео: MPEG-4 AVC, 1015 Кбит/с, 656x272
Звук: МР3, 2 ch, 128 Кбит/с
Субтитры: Русские (Субтитры вшитые на места без перевода и на надписи)

Инфо файл

Общее
Полное имя : D:ВидеоBatman.v.Superman.Dawn.of.Justice.2016.Extended.Ultimate.Edition.WEB DLRip by Vovan366(ExKinoRay).avi
Формат : AVI
Формат/Информация : Audio Video Interleave
Размер файла : 1,47 Гбайт
Продолжительность : 3 ч. 2 м.
Общий поток : 1152 Кбит/сек
Программа кодирования : VirtualDubMod 1.5.10.3 | www.virtualdub-fr.org || (build 2550/release)
Библиотека кодирования : VirtualDubMod build 2550/release
Видео
Идентификатор : 0
Формат : MPEG-4 Visual
Профиль формата : Advanced Simple@L5
Параметр BVOP формата : 2
Параметр QPel формата : Нет
Параметр GMC формата : Без точки перехода
Параметр матрицы формата : Выборочная
Режим смешивания : Сжатый битовый поток
Идентификатор кодека : XVID
Идентификатор кодека/Подсказка : XviD
Продолжительность : 3 ч. 2 м.
Битрейт : 1015 Кбит/сек
Ширина : 656 пикселей
Высота : 272 пикселя
Соотношение сторон : 2,40:1
Частота кадров : 23,976 кадра/сек
Цветовое пространство : YUV
Субдискретизация насыщенности : 4:2:0
Битовая глубина : 8 бит
Тип развёртки : Прогрессивная
Метод сжатия : С потерями
Бит/(Пиксели*Кадры) : 0.237
Размер потока : 1,29 Гбайт (88%)
Библиотека кодирования : XviD 73
Аудио
Идентификатор : 1
Формат : MPEG Audio
Версия формата : Version 1
Профиль формата : Layer 3
Идентификатор кодека : 55
Идентификатор кодека/Подсказка : MP3
Продолжительность : 3 ч. 2 м.
Вид битрейта : Постоянный
Битрейт : 128 Кбит/сек
Каналы : 2 канала
Частота : 48,0 КГц
Метод сжатия : С потерями
Размер потока : 167 Мбайт (11%)
Выравнивание : Соединение по промежуткам
Продолжительность промежутка : 42 мс. (1,00 видеокадр)
Время предзагрузки промежутка : 504 мс.
Библиотека кодирования : LAME3.99r
Настройки программы : -m s -V 4 -q 2 -lowpass 17 -b 128

Скриншоты



[Профиль] [ЛС]
Кто просматривает тему:

Форум Тема Автор Размер
Action LEGO Batman - Trilogy / ЛЕГО Бэтмен - Трилогия [RePack] [ENG / ENG] (2008) TorrentFilm 6.47 GB
Action LEGO Batman 3: Beyond Gotham / ЛЕГО Бэтмен 3: Покидая Готэм [RiP] [RUS / ENG] (2014) TorrentFilm 6.89 GB
Зарубежные мультфильмы Безграничный Бэтмен: Животные инстинкты / Batman Unlimited: Animal Instincts (2015) BDRemux 1080p Russian Mafia 12.68 GB
Зарубежные мультфильмы Безграничный Бэтмен: Хаос / Batman Unlimited: Monster Mayhem (2015) BDRip 720p | iTunes Russian Mafia 2.86 GB
Зарубежные мультфильмы Безграничный Бэтмен: Хаос / Batman Unlimited: Monster Mayhem (2015) HDRip | iTunes достали все 1.37 GB
Зарубежные мультсериалы Берегитесь Бэтмена / Beware the Batman [01x01-26 из 26] (2013-2014) WEB-DL 1080p | L1 Russian Mafia 21.41 GB
Зарубежные мультсериалы Бэтмен / Batman: The Animated Series / Сезон 1 / Серии 1-56 из 65 (Алан Бёрнет, Брюс Тимм / Alan Burnett, Bruce Timm) [1992, мультсериал, фантастика, детектив, DVDRip] Dub + Original (Eng) Russian Mafia 16.51 GB
Зарубежные мультсериалы Бэтмен / Batman: The Animated Series / Сезоны: 1, 2 / Серии: 2-85 из 85 (Алан Бёрнет / Alan Burnett, Брюс Тимм / Bruce Timm) [1992-1995, Детектив, DVB] Dub (СТС) Russian Mafia 36.69 GB
Показать сообщения:    

Текущее время: Сегодня 04:14

Часовой пояс: GMT



Вы не можете начинать темы
Вы не можете отвечать на сообщения
Вы не можете редактировать свои сообщения
Вы не можете удалять свои сообщения
Вы не можете голосовать в опросах
Вы не можете прикреплять файлы к сообщениям
Вы не можете скачивать файлы