Бэйб: Четвероногий малыш / Babe (1995) BDRip 1080p

 
Автор Сообщение

Russian Mafia ®

Пол:

Стаж: 1 год 8 месяцев

Сообщений: 4247



Награды: 10 (Подробнее)

Mega Seeder 3 (Количество: 1) Mega Seeder 5 (Количество: 1) Top Releaser 2 (Количество: 1)
Торрент-статистика

Создавать темы 26-Авг-2016 06:54

[Цитировать]

Информация о фильме
Название: Бэйб: Четвероногий малыш
Оригинальное название: Babe
Год выхода: 1995
Жанр: фэнтези, драма, комедия, приключения, семейный
Режиссер: Крис Нунен
В ролях: Кристин Кавана, Мириам Марголис, Дэнни Манн, Хьюго Уивинг, Мириам Флинн, Расси Тейлор, Evelyn Krape, Майкл Эдвард-Стивенс, Чарльз Бартлетт, Пол Ливингстон
О фильме: История о приключениях маленького необыкновенно умного поросенка йоркширской породы. Все животные на ферме Хоггетов имеют ярко выраженную индивидуальность и общаются между собой на человеческом языке. Люди при этом, разумеется совершенно не в курсе дела.
Когда же хозяин начинает что-то подозревать, он сам включается в эту игру, надеясь использовать в хозяйстве вдруг проявившийся интеллект животных. Четвероногий малыш, тот самый поросенок, воспитанный овчаркой Флай, пытается доказать, что свинья годится не только для украшения рождественского стола (к чему дело как раз и шло), но способна выполнять работу, требующую ума и сообразительности — пасти овец.
Можете себе представить, как к этой идее относятся сами овцы! Не говоря об овчарках — какая профессиональная гордость такое выдержит?

Выпущено: Universal Pictures
Продолжительность: 01:31:56
Перевод: Дублированный (лицензия) + Авторский (А.Гаврилов)
Файл
Кодек: x264
Качество: BDRip (источник: Blu-ray Disc)
Видео: 1920x1040 (16:9), 23.976 fps, 8910 kbps
Аудио #1: 48 kHz, AC-3, 2 ch, 448 kbps (Дубляж)
Аудио #2: 48 kHz, DTS, 6 ch, 1510 kbps (AVO Гаврилов)
Аудио #3: 48 kHz, DTS, 6 ch, 1510 kbps (Оригинал)
Субтитры: Русские, Английские
Скачать: сэмпл
Скриншоты

MI

Общее
Уникальный идентификатор : 204515210804136640676011867805388511436 (0x99DC32653901547FA796B854008218CC)
Полное имя : Babe.1995.BDRip.1080p.Rus.Eng.mkv
Формат : Matroska
Версия формата : Version 2
Размер файла : 7,95 Гбайт
Продолжительность : 1 ч. 31 м.
Общий поток : 12,4 Мбит/сек
Название фильма : Бэйб: Четвероногий малыш / Babe (1995)
Дата кодирования : UTC 2011-12-15 22:06:59
Программа кодирования : mkvmerge v4.0.0 ('The Stars were mine') сборка от Jun 6 2010 16:18:42
Библиотека кодирования : libebml v1.0.0 + libmatroska v1.0.0
Видео
Идентификатор : 1
Формат : AVC
Формат/Информация : Advanced Video Codec
Профиль формата : High@L4.1
Параметр CABAC формата : Да
Параметр ReFrames формата : 4 кадра
Идентификатор кодека : V_MPEG4/ISO/AVC
Продолжительность : 1 ч. 31 м.
Битрейт : 8910 Кбит/сек
Ширина : 1920 пикселей
Высота : 1040 пикселей
Соотношение сторон : 16:9
Частота кадров : 23,976 кадра/сек
Цветовое пространство : YUV
Субдискретизация насыщенности : 4:2:0
Битовая глубина : 8 бит
Тип развёртки : Прогрессивная
Бит/(Пиксели*Кадры) : 0.186
Размер потока : 5,56 Гбайт (70%)
Заголовок : Release by AlexKa
Библиотека кодирования : x264 core 120 r2120 0c7dab9
Настройки программы : cabac=1 / ref=4 / deblock=1:-3:-3 / analyse=0x3:0x133 / me=umh / subme=10 / psy=1 / psy_rd=1.00:0.10 / mixed_ref=1 / me_range=32 / chroma_me=1 / trellis=2 / 8x8dct=1 / cqm=0 / deadzone=21,11 / fast_pskip=0 / chroma_qp_offset=-3 / threads=12 / sliced_threads=0 / nr=0 / decimate=0 / interlaced=0 / bluray_compat=0 / constrained_intra=0 / bframes=5 / b_pyramid=2 / b_adapt=2 / b_bias=0 / direct=3 / weightb=1 / open_gop=0 / weightp=2 / keyint=240 / keyint_min=24 / scenecut=40 / intra_refresh=0 / rc_lookahead=60 / rc=2pass / mbtree=1 / bitrate=8910 / ratetol=1.0 / qcomp=0.60 / qpmin=0 / qpmax=69 / qpstep=4 / cplxblur=20.0 / qblur=0.5 / ip_ratio=1.40 / aq=1:1.00
Язык : English
Аудио #1
Идентификатор : 2
Формат : AC-3
Формат/Информация : Audio Coding 3
Профиль формата : Dolby Digital
Расширение режима : CM (complete main)
Идентификатор кодека : A_AC3
Продолжительность : 1 ч. 31 м.
Вид битрейта : Постоянный
Битрейт : 448 Кбит/сек
Каналы : 2 канала
Расположение каналов : Front: L R
Частота : 48,0 КГц
Битовая глубина : 16 бит
Метод сжатия : С потерями
Размер потока : 295 Мбайт (4%)
Заголовок : Дубляж
Язык : Russian
Аудио #2
Идентификатор : 3
Формат : DTS
Формат/Информация : Digital Theater Systems
Идентификатор кодека : A_DTS
Продолжительность : 1 ч. 31 м.
Вид битрейта : Постоянный
Битрейт : 1510 Кбит/сек
Каналы : 6 каналов
Расположение каналов : Front: L C R, Side: L R, LFE
Частота : 48,0 КГц
Битовая глубина : 24 бит
Метод сжатия : С потерями
Размер потока : 993 Мбайт (12%)
Заголовок : AVO Гаврилов
Язык : Russian
Аудио #3
Идентификатор : 4
Формат : DTS
Формат/Информация : Digital Theater Systems
Идентификатор кодека : A_DTS
Продолжительность : 1 ч. 31 м.
Вид битрейта : Постоянный
Битрейт : 1510 Кбит/сек
Каналы : 6 каналов
Расположение каналов : Front: L C R, Side: L R, LFE
Частота : 48,0 КГц
Битовая глубина : 24 бит
Метод сжатия : С потерями
Размер потока : 993 Мбайт (12%)
Заголовок : Оригинал
Язык : English
Текст #1
Идентификатор : 5
Формат : UTF-8
Идентификатор кодека : S_TEXT/UTF8
Идентификатор кодека/Информация : UTF-8 Plain Text
Заголовок : Rus
Язык : Russian
Текст #2
Идентификатор : 6
Формат : UTF-8
Идентификатор кодека : S_TEXT/UTF8
Идентификатор кодека/Информация : UTF-8 Plain Text
Заголовок : Eng
Язык : English
Меню
00:00:00.000 : :Chapter 01
00:07:01.462 : :Chapter 02
00:09:23.520 : :Chapter 03
00:14:37.835 : :Chapter 04
00:25:20.978 : :Chapter 05
00:27:29.605 : :Chapter 06
00:32:57.893 : :Chapter 07
00:37:13.523 : :Chapter 08
00:47:14.623 : :Chapter 09
00:51:50.231 : :Chapter 10
00:58:46.981 : :Chapter 11
01:02:47.472 : :Chapter 12
01:10:23.845 : :Chapter 13
01:13:09.510 : :Chapter 14
01:20:20.524 : :Chapter 15
01:26:48.994 : :Chapter 16
[Профиль] [ЛС]
Кто просматривает тему:

Показать сообщения:    

Текущее время: Сегодня 06:29

Часовой пояс: GMT



Вы не можете начинать темы
Вы не можете отвечать на сообщения
Вы не можете редактировать свои сообщения
Вы не можете удалять свои сообщения
Вы не можете голосовать в опросах
Вы не можете прикреплять файлы к сообщениям
Вы не можете скачивать файлы