Бьютифул / Biutiful (Алехандро Гонсалес Иньярриту / Alejandro González Iñárritu) [2009, Мексика, Испания, Драма, BDRip] Dub

 
Автор Сообщение

reversefile ®

Пол:

Стаж: 4 года 5 месяцев

Сообщений: 842

Откуда: ReverseFile.org



Награды: Нет

Торрент-статистика

Создавать темы 13-Авг-2014 10:02

[Цитировать]

-Бьютифул / Biutiful-
Год выпуска: 2009
Страна: Мексика, Испания
Жанр: Драма
Продолжительность: 02:28:02
Перевод:: Профессиональный (дублированный)
Cубтитры: Нет-Режиссер: Алехандро Гонсалес Иньярриту / Alejandro Gonzalez Inarritu
В ролях: Хавьер Бардем, Марисель Альварес, Ханна Бушаиб, Гильермо Эстрелла и др.-Описание: Разведенный отец двоих детей Уксбаль — свой человек в теневом мире Барселоны. Для правоохранительных органов он — нарушитель закона; для нелегальных иммигрантов, которым помогает получить работу, — добрый ангел. Узнав, что неизлечимо болен, Уксбаль начинает готовиться к смерти…-Релиз:
Рип: Shevon--Информационные ссылки: IMDb || Кинопоиск-Качество: BDRip (Исходник: Blu-Ray Remux)
Формат: AVI (Сэмпл)
Видео: 720x400 (1.80:1), 23.976 fps, XviD build 64 ~1719 kbps avg, 0.25 bit/pixel
Аудио: 48 kHz, AC3 Dolby Digital, 3/2 (L,C,R,l,r) + LFE ch, ~384 kbps-

MI

General
Complete name : D:\Видео\Фильмы\MKW\Biutiful.2010.RUS.BDRip.avi
Format : AVI
Format/Info : Audio Video Interleave
Format profile : OpenDML
File size : 2.18 GiB
Duration : 2h 28mn
Overall bit rate : 2 110 Kbps
Movie name : Biutiful (2010)
Director : Shevon (BDRemux)
Writing application : VirtualDubMod 1.5.10.2 (build 2540/release)
Video
ID : 0
Format : MPEG-4 Visual
Format profile : Advanced Simple@L5
Format settings, BVOP : 1
Format settings, QPel : No
Format settings, GMC : No warppoints
Format settings, Matrix : Custom
Codec ID : XVID
Codec ID/Hint : XviD
Duration : 2h 28mn
Bit rate : 1 715 Kbps
Width : 720 pixels
Height : 400 pixels
Display aspect ratio : 16:9
Frame rate : 23.976 fps
Color space : YUV
Chroma subsampling : 4:2:0
Bit depth : 8 bits
Scan type : Progressive
Compression mode : Lossy
Bits/(Pixel*Frame) : 0.248
Stream size : 1.77 GiB (81%)
Writing library : XviD 64
Audio
ID : 1
Format : AC-3
Format/Info : Audio Coding 3
Mode extension : CM (complete main)
Format settings, Endianness : Big
Codec ID : 2000
Duration : 2h 27mn
Bit rate mode : Constant
Bit rate : 384 Kbps
Channel count : 6 channels
Channel positions : Front: L C R, Side: L R, LFE
Sampling rate : 48.0 KHz
Bit depth : 16 bits
Compression mode : Lossy
Stream size : 406 MiB (18%)
Alignment : Split accross interleaves
Interleave, duration : 42 ms (1.00 video frame)
Interleave, preload duration : 500 ms

Скриншоты

[Профиль] [ЛС]

Создавать темы 06-Авг-2015 23:19 (спустя 11 месяцев 24 дня)

Топик был перенесен из форума Фильмы до 2014 года в форум Фильмы до 2012 года
sergej644
 

Создавать темы 12-Июн-2016 08:13 (спустя 1 год 9 месяцев)

Топик был перенесен из форума Фильмы 2011 года в форум Фильмы 2009 года
Russian Mafia
 
Кто просматривает тему:

Показать сообщения:    

Текущее время: Сегодня 12:49

Часовой пояс: GMT



Вы не можете начинать темы
Вы не можете отвечать на сообщения
Вы не можете редактировать свои сообщения
Вы не можете удалять свои сообщения
Вы не можете голосовать в опросах
Вы не можете прикреплять файлы к сообщениям
Вы не можете скачивать файлы