Быть или...пить? (Б. Шошитаишвили) [1985, Грузия-фильм, мультфильм для взрослых, TeleSynch]

 
Автор Сообщение

TorrentFilm ®

Пол:

Стаж: 2 года

Сообщений: 7741



Награды: Нет

Торрент-статистика

Создавать темы 17-Дек-2014 02:30

[Цитировать]

Быть или...пить?
Страна: СССР
Жанр: мультфильм для взрослых
Продолжительность: 00:09:39
Год выпуска: 1985
Режиссёр: Б. Шошитаишвили
Описание: Печальная история о некогда трудолюбивом человеке, потерявшем человеческий облик из-за пристрастия к алкоголю
Доп. информация: Фильм оцифрован с киноплёнки 16-мм
Качество: TeleSynch
Формат: mpg
Видео: MPEG, 4:3, 720х576, 25 fps, 3441 kbps
Аудио: Layer 2, 48 кHz, 2 ch, 256 kbps

Подробные технические данные

ОбщееПолное имя :Быть или пить.mpgФормат : MPEG-PSРазмер файла : 238 МбайтПродолжительность : 9 м. 39 с.Режим общего битрейта : ПеременныйОбщий поток : 3441 Кбит/сек
ВидеоИдентификатор : 224 (0xE0)Формат : MPEG VideoВерсия формата : Version 2Профиль формата : Main@MainПараметр BVOP формата : ДаПараметр матрицы формата : По умолчаниюПараметр GOP формата : VariableПродолжительность : 9 м. 39 с.Вид битрейта : ПеременныйБитрейт : 3117 Кбит/секШирина : 720 пикселейВысота : 576 пикселейСоотношение сторон : 5:4Частота кадров : 25,000 кадров/секСтандарт вещания : PALЦветовое пространство : YUVСубдискретизация насыщенности : 4:2:0Битовая глубина : 8 битТип развёртки : ПрогрессивнаяМетод сжатия : С потерямиБит/(Пиксели*Кадры) : 0.301Временной код первого кадра : 00:00:00:00Оригинал временного кода : Group of pictures headerРазмер потока : 215 Мбайт (91%)
АудиоИдентификатор : 192 (0xC0)Формат : MPEG AudioВерсия формата : Version 1Профиль формата : Layer 2Продолжительность : 9 м. 39 с.Вид битрейта : ПостоянныйБитрейт : 256 Кбит/секКаналы : 2 каналаЧастота : 48,0 КГцМетод сжатия : С потерямиРазмер потока : 17,7 Мбайт (7%)

Скриншоты

, , ,
[Профиль] [ЛС]
Кто просматривает тему:

Показать сообщения:    

Текущее время: Сегодня 05:18

Часовой пояс: GMT



Вы не можете начинать темы
Вы не можете отвечать на сообщения
Вы не можете редактировать свои сообщения
Вы не можете удалять свои сообщения
Вы не можете голосовать в опросах
Вы не можете прикреплять файлы к сообщениям
Вы не можете скачивать файлы