Быстрый и мёртвый / The Quick and the Dead (1995) BDRip 1080p | D, P, A

 
Автор Сообщение

Russian Mafia ®

Пол:

Стаж: 1 год 8 месяцев

Сообщений: 4257



Награды: 10 (Подробнее)

Mega Seeder 1 (Количество: 1) Mega Seeder 2 (Количество: 1) Mega Seeder 5 (Количество: 1)
Торрент-статистика

Создавать темы 14-Сен-2015 18:47

[Цитировать]

Название: Быстрый и мёртвый
Оригинальное название: The Quick and the Dead
Год выпуска: 1995
Жанр: Боевик, приключения, вестерн
Выпущено: США, Япония, IndieProd Company Productions, Japan Satellite Broadcasting Inc. (JBS), TriStar Pictures
Режиссер: Сэм Рэйми
В ролях: Шэрон Стоун, Джин Хэкмен, Расселл Кроу, Леонардо ДиКаприо, Тобин Белл, Робертс Блоссом, Кевин Конуэй, Кит Дэвид, Лэнс Хенриксен, Пэт Хингл, Гэри Синиз, Марк Бун Джуниор, Оливия Бернетт, Фэй Мастерсон, Рейнор Шайни, Вуди Строуд, Джерри Свиндолл, Скотт Спигел
О фильме: Пустыня и посреди неё маленький грязный городок. Здесь только женщины и больные не носят кобуры на поясе. В городе хозяйничает майор Херад — жестокий и хладнокровный человек. Все его боятся, и каждая собака его знает. Если он разрешил тебе — ты можешь жить. Но однажды на горизонте появляется незнакомый всадник. Он въезжает в город и медленно движется по главной улице. Но вот незадача: это не он, а она — таинственная женщина-ковбой. Никто ещё не догадывается, что появление Эллен изменит жизнь всего городка…
Качество: BDRip 1080p
Размер: 10.89 ГБ
Продолжительность: 01:47:46
Видео: MPEG-4 AVC, 11.4 Mбит/с, 1920x1036
Аудио 1: русский, 48 kHz, AC3, 6 ch, 640 kbps avg, Сони/ВидеоСервис [Дублированный]
Аудио 2: русский, 48 kHz, AC3, 2 ch, 224 kbps avg, ОРТ [Профессиональный многоголосый]
Аудио 3: русский, 48 kHz, AC3, 2 ch, 224 kbps avg, ВидеоСервис [Профессиональный многоголосый]
Аудио 4: русский, 48 kHz, AC3, 2 ch, 256 kbps avg, Андрей Гаврилов [Авторский]
Внешние файлы
Аудио: английский, 48 kHz, DTS, 6 ch, 1509 kbps avg, [Оригинал]
Субтитры: русские
Субтитры: английские
[
Сравнение с исходником

MediaInfo

Общее
Полное имя : E:VideoBystryj.i.mertvyj.1995.x264.BDRip.1080pBystryj.i.mertvyj.1995.eng.srt
Размер файла : 46,0 Кбайт
Общее
Полное имя : E:VideoBystryj.i.mertvyj.1995.x264.BDRip.1080pBystryj.i.mertvyj.1995.Original.eng.dts
Формат : DTS
Формат/Информация : Digital Theater Systems
Размер файла : 1,14 Гбайт
Продолжительность : 1 ч. 47 м.
Режим общего битрейта : Постоянный
Общий поток : 1509 Кбит/сек
Аудио
Формат : DTS
Формат/Информация : Digital Theater Systems
Режим : 16
Параметр Endianness формата : Big
Продолжительность : 1 ч. 47 м.
Вид битрейта : Постоянный
Битрейт : 1509 Кбит/сек
Каналы : 6 каналов
Расположение каналов : Front: L C R, Side: L R, LFE
Частота : 48,0 КГц
Битовая глубина : 24 бит
Метод сжатия : С потерями
Размер потока : 1,14 Гбайт (100%)
Общее
Полное имя : E:VideoBystryj.i.mertvyj.1995.x264.BDRip.1080pBystryj.i.mertvyj.1995.rus.srt
Размер файла : 60,8 Кбайт
Общее
Уникальный идентификатор : 218428738791167923663554243878610276660 (0xA453D849BECF8F9286B336688D5C1134)
Полное имя : E:VideoBystryj.i.mertvyj.1995.x264.BDRip.1080pBystryj.i.mertvyj.1995.x264.BDRip.1080p.mkv
Формат : Matroska
Версия формата : Version 4 / Version 2
Размер файла : 9,76 Гбайт
Продолжительность : 1 ч. 47 м.
Общий поток : 13,0 Мбит/сек
Название фильма : Быстрый и мертвый / The Quick and the Dead / 1995 / BDRip -- STarankov
Дата кодирования : UTC 2010-02-22 21:41:31
Программа кодирования : mkvmerge v5.9.0 ('On The Loose') built on Dec 9 2012 15:37:01
Библиотека кодирования : libebml v1.3.0 + libmatroska v1.4.0
Видео
Идентификатор : 1
Формат : AVC
Формат/Информация : Advanced Video Codec
Профиль формата : High@L4.1
Параметр CABAC формата : Да
Параметр ReFrames формата : 4 кадра
Идентификатор кодека : V_MPEG4/ISO/AVC
Продолжительность : 1 ч. 47 м.
Битрейт : 11,4 Мбит/сек
Ширина : 1920 пикселей
Высота : 1036 пикселей
Соотношение сторон : 1,85:1
Режим частоты кадров : Постоянный
Частота кадров : 23,976 кадра/сек
Цветовое пространство : YUV
Субдискретизация насыщенности : 4:2:0
Битовая глубина : 8 бит
Тип развёртки : Прогрессивная
Бит/(Пиксели*Кадры) : 0.238
Размер потока : 8,55 Гбайт (88%)
Библиотека кодирования : x264 core 133 r2334 a3ac64b
Настройки программы : cabac=1 / ref=4 / deblock=1:-1:-1 / analyse=0x3:0x113 / me=umh / subme=10 / psy=1 / psy_rd=1.00:0.15 / mixed_ref=1 / me_range=24 / chroma_me=1 / trellis=2 / 8x8dct=1 / cqm=0 / deadzone=21,11 / fast_pskip=0 / chroma_qp_offset=-3 / threads=6 / lookahead_threads=1 / sliced_threads=0 / nr=0 / decimate=1 / interlaced=0 / bluray_compat=0 / constrained_intra=0 / bframes=8 / b_pyramid=2 / b_adapt=2 / b_bias=0 / direct=1 / weightb=0 / open_gop=0 / weightp=2 / keyint=230 / keyint_min=23 / scenecut=40 / intra_refresh=0 / rc_lookahead=60 / rc=crf / mbtree=0 / crf=20.0 / qcomp=0.60 / qpmin=0 / qpmax=69 / qpstep=4 / vbv_maxrate=50000 / vbv_bufsize=62500 / crf_max=0.0 / nal_hrd=none / ip_ratio=1.40 / pb_ratio=1.30 / aq=1:0.80
Язык : English
Default : Да
Forced : Нет
Аудио #1
Идентификатор : 2
Формат : AC-3
Формат/Информация : Audio Coding 3
Расширение режима : CM (complete main)
Параметр Endianness формата : Big
Идентификатор кодека : A_AC3
Продолжительность : 1 ч. 47 м.
Вид битрейта : Постоянный
Битрейт : 640 Кбит/сек
Каналы : 6 каналов
Расположение каналов : Front: L C R, Side: L R, LFE
Частота : 48,0 КГц
Битовая глубина : 16 бит
Метод сжатия : С потерями
Размер потока : 493 Мбайт (5%)
Заголовок : DUB (Сони/ВидеоСервис)
Язык : Russian
Default : Да
Forced : Нет
Аудио #2
Идентификатор : 3
Формат : AC-3
Формат/Информация : Audio Coding 3
Расширение режима : CM (complete main)
Параметр Endianness формата : Big
Идентификатор кодека : A_AC3
Продолжительность : 1 ч. 47 м.
Вид битрейта : Постоянный
Битрейт : 224 Кбит/сек
Каналы : 2 канала
Расположение каналов : Front: L R
Частота : 48,0 КГц
Битовая глубина : 16 бит
Метод сжатия : С потерями
Размер потока : 173 Мбайт (2%)
Заголовок : MVO (ВидеоСервис)
Язык : Russian
Default : Нет
Forced : Нет
Аудио #3
Идентификатор : 4
Формат : AC-3
Формат/Информация : Audio Coding 3
Расширение режима : CM (complete main)
Параметр Endianness формата : Big
Идентификатор кодека : A_AC3
Продолжительность : 1 ч. 47 м.
Вид битрейта : Постоянный
Битрейт : 224 Кбит/сек
Каналы : 2 канала
Расположение каналов : Front: L R
Частота : 48,0 КГц
Битовая глубина : 16 бит
Метод сжатия : С потерями
Размер потока : 173 Мбайт (2%)
Заголовок : MVO (OPT)
Язык : Russian
Default : Нет
Forced : Нет
Аудио #4
Идентификатор : 5
Формат : AC-3
Формат/Информация : Audio Coding 3
Расширение режима : CM (complete main)
Параметр Endianness формата : Big
Идентификатор кодека : A_AC3
Продолжительность : 1 ч. 47 м.
Вид битрейта : Постоянный
Битрейт : 256 Кбит/сек
Каналы : 2 канала
Расположение каналов : Front: L R
Частота : 48,0 КГц
Битовая глубина : 16 бит
Метод сжатия : С потерями
Размер потока : 197 Мбайт (2%)
Заголовок : AVO (Андрей Гаврилов)
Язык : Russian
Default : Нет
Forced : Нет

Скриншоты


[Профиль] [ЛС]
Кто просматривает тему:

Форум Тема Автор Размер
Бокс, Бои без правил, К1 10 самых быстрых одноударных нокаутов в истории бокса [1982-2005, Бокс, SATRip, TVRip] Один 777 473 MB
Action G.B.R: Группа Быстрого Реагирования (RUS) [L] (Action / FPS) 2008 TorrentFilm 2.81 GB
Программы [Разное] Быстрое умножение в уме v1.10 [Android 1.6+, RUS/ENG] TorrentFilm 2 MB
Программы [Утилиты] Быстрый Поиск Текста [Android 4.0, RUS + ENG] TorrentFilm 3 MB
Фильмы 2010 года Быстрее пули / Faster (Джордж Тиллман мл. / George Tillman Jr.) [2010 г., США, боевик, триллер, драма, криминал, HDRip] AVO (Гаврилов) TorrentFilm 743 MB
Фильмы (HD Rips | 720p, 1080p) Быстрее, чем кролики (Дмитрий Дьяченко) [2013, Россия, комедия, BDRip 720p] TorrentFilm 5.18 GB
Фильмы (HD Rips | 720p, 1080p) Быстрее, чем кролики (Дмитрий Дьяченко) [2013, Россия, комедия, WEB-DL 720p] [Расширенная версия] TorrentFilm 3.01 GB
История, биографии, религия и искусство Быстролётов Дмитрий - Пир бессмертных 02. Превращения [Бухмин Аркадий, 2015] Magnat 222 MB
Показать сообщения:    

Текущее время: Сегодня 20:45

Часовой пояс: GMT



Вы не можете начинать темы
Вы не можете отвечать на сообщения
Вы не можете редактировать свои сообщения
Вы не можете удалять свои сообщения
Вы не можете голосовать в опросах
Вы не можете прикреплять файлы к сообщениям
Вы не можете скачивать файлы