Быстрее, чем кролики (Дмитрий Дьяченко) [2013, Россия, комедия, WEB-DL 720p] [Расширенная версия]

 
Автор Сообщение

TorrentFilm ®

Пол:

Стаж: 2 года

Сообщений: 7741



Награды: Нет

Торрент-статистика

Создавать темы 17-Фев-2016 00:08

[Цитировать]

Быстрее, чем кролики / Расширенная версия
Страна: Россия
Жанр: комедия
Год выпуска: 2013
Продолжительность: 01:39:11
Перевод: Не требуется
Cубтитры: нет
Оригинальная аудиодорожка: русский
Режиссер: Дмитрий Дьяченко
В ролях: Леонид Барац, Александр Демидов, Камиль Ларин, Ростислав Хаит, Игорь Золотовицкий, Екатерина Кузнецова, Артем Смола, Григорий Данцигер, Дмитрий Дибров, Валдис Пельш
Описание: Трое друзей после бурной вечеринки просыпаются в совершенно незнакомом месте в компании незнакомых людей и пытаются понять, как они здесь оказались, кто все эти люди, и что на самом деле произошло накануне…
Что делают и о чем говорят мужчины в такой необычной ситуации?
Доп. информация: Расширенная версия! Длиннее DVD-шной приблизительно на 7 мин - альтернативная концовка фильма!
Сэмпл: http://multi-up.com/1088625

Тип релиза: WEB-DL 720p
Контейнер: MKV
Видео: MPEG-4 AVC/H.264 / 3877 kbps / 1280x532 / 24.000 fps
Аудио: AC3 / 6 ch / 384 kbps / 48 kHz
  • Сохранены оригинальные главы.
  • Исходный WEB-DL куплен в рамках сервиса "Копилка".

MediaInfo

General
Unique ID : 187588552149971367492301809612229010091 (0x8D203DB0EE14E4728A68B7B4D54562AB)
Complete name : J:\Torrents\Bystree.chem.kroliki.Extended.2013.WEB-DL.720p.mkv
Format : Matroska
Format version : Version 2
File size : 3.01 GiB
Duration : 1h 39mn
Overall bit rate : 4 348 Kbps
Encoded date : UTC 2014-02-19 09:06:00
Writing application : mkvmerge v5.8.0 ('No Sleep / Pillow') built on Sep 2 2012 15:37:04
Writing library : libebml v1.2.3 + libmatroska v1.3.0
Video
ID : 1
Format : AVC
Format/Info : Advanced Video Codec
Format profile : Main@L3.1
Format settings, CABAC : No
Format settings, ReFrames : 2 frames
Codec ID : V_MPEG4/ISO/AVC
Duration : 1h 39mn
Bit rate : 3 877 Kbps
Width : 1 280 pixels
Height : 532 pixels
Display aspect ratio : 2.40:1
Frame rate mode : Constant
Frame rate : 24.000 fps
Color space : YUV
Chroma subsampling : 4:2:0
Bit depth : 8 bits
Scan type : Progressive
Bits/(Pixel*Frame) : 0.237
Stream size : 2.69 GiB (89%)
Language : English
Default : Yes
Forced : No
Color range : Limited
Color primaries : BT.709
Transfer characteristics : BT.709
Matrix coefficients : BT.709
Audio
ID : 2
Format : AC-3
Format/Info : Audio Coding 3
Mode extension : CM (complete main)
Format settings, Endianness : Big
Codec ID : A_AC3
Duration : 1h 39mn
Bit rate mode : Constant
Bit rate : 384 Kbps
Channel(s) : 6 channels
Channel positions : Front: L C R, Side: L R, LFE
Sampling rate : 48.0 KHz
Frame rate : 31.250 fps (1536 spf)
Compression mode : Lossy
Stream size : 272 MiB (9%)
Language : Russian
Default : Yes
Forced : No
Menu
00:00:00.000 : en:Глава 1
00:06:46.000 : en:Глава 2
00:11:46.000 : en:Глава 3
00:16:47.000 : en:Глава 4
00:21:48.000 : en:Глава 5
00:26:51.000 : en:Глава 6
00:31:52.000 : en:Глава 7
00:36:52.000 : en:Глава 8
00:41:55.000 : en:Глава 9
00:46:56.000 : en:Глава 10
00:51:57.000 : en:Глава 11
00:56:59.000 : en:Глава 12
01:02:08.000 : en:Глава 13
01:07:08.000 : en:Глава 14
01:12:10.000 : en:Глава 15
01:17:10.000 : en:Глава 16
01:22:10.000 : en:Глава 17
01:27:11.000 : en:Глава 18
01:32:19.000 : en:Глава 19

Скриншоты

[Профиль] [ЛС]
Показать сообщения:    

Текущее время: Сегодня 06:26

Часовой пояс: GMT



Вы не можете начинать темы
Вы не можете отвечать на сообщения
Вы не можете редактировать свои сообщения
Вы не можете удалять свои сообщения
Вы не можете голосовать в опросах
Вы не можете прикреплять файлы к сообщениям
Вы не можете скачивать файлы