Быстрее пули / Faster (Джордж Тиллман мл. / George Tillman Jr.) [2010 г., США, боевик, триллер, драма, криминал, HDRip] AVO (Гаврилов)

 
Автор Сообщение

TorrentFilm ®

Пол:

Стаж: 2 года

Сообщений: 7741



Награды: Нет

Торрент-статистика

Создавать темы 15-Фев-2016 00:00

[Цитировать]

Быстрее пули / Faster
Год выпуска: 2010
Страна: США
Жанр: боевик, триллер, драма, криминал
Продолжительность: 01:37:57
Перевод: Авторский (одноголосый, закадровый) Андрей Гаврилов
Cубтитры: нет
Режиссер: Джордж Тиллман мл. / George Tillman Jr.
В ролях: Дуэйн Джонсон, Билли Боб Торнтон, Оливер Джексон-Коэн, Карла Гуджино, Мэгги Грэйс, Мун Бладгуд, Адевале Акиннуойе-Агбадже, Том Беренджер, Маурицио Лопез, Джим Гейнс
Описание: Бывший преступник мстит за убийство родного брата во время ограбления десять лет назад, когда кто-то подставил нечистых на руку родственников.
http://multi-up.com/1089088 СЭМПЛ
Качество: HDRip
Формат: AVI
Видео: 688x288 (2.39:1), 23.976 fps, XviD build 50 ~923 kbps avg, 0.19 bit/pixel
Аудио: 48 kHz, MPEG Layer 3, 2 ch, ~128.00 kbps avg

MediaInfo

Формат : AVI
Формат/Информация : Audio Video Interleave
Размер файла : 743 Мбайт
Продолжительность : 1 ч. 37 м.
Общий поток : 1061 Кбит/сек
Программа кодирования : VirtualDubMod 1.5.10.2 (build 2540/release)
Библиотека кодирования : VirtualDubMod build 2540/release
Видео
Идентификатор : 0
Формат : MPEG-4 Visual
Профиль формата : Advanced Simple@L5
Параметр BVOP формата : 1
Параметр QPel формата : Нет
Параметр GMC формата : Без точки перехода
Параметр матрицы формата : Выборочная
Идентификатор кодека : XVID
Идентификатор кодека/Подсказка : XviD
Продолжительность : 1 ч. 37 м.
Битрейт : 923 Кбит/сек
Ширина : 688 пикселей
Высота : 288 пикселей
Соотношение сторон : 2,40:1
Частота кадров : 23,976 (23976/1000) кадра/сек
Цветовое пространство : YUV
Субдискретизация насыщенности : 4:2:0
Битовая глубина : 8 бит
Тип развёртки : Прогрессивная
Метод сжатия : С потерями
Бит/(Пиксели*Кадры) : 0.194
Размер потока : 647 Мбайт (87%)
Библиотека кодирования : XviD 1.2.1 (UTC 2008-12-04)
Аудио
Идентификатор : 1
Формат : MPEG Audio
Версия формата : Version 1
Профиль формата : Layer 3
Идентификатор кодека : 55
Идентификатор кодека/Подсказка : MP3
Продолжительность : 1 ч. 37 м.
Вид битрейта : Постоянный
Битрейт : 128 Кбит/сек
Каналы : 2 канала
Частота : 48,0 КГц
Метод сжатия : С потерями
Размер потока : 89,7 Мбайт (12%)
Выравнивание : Соединение по промежуткам
Продолжительность промежутка : 42 мс. (1,00 видеокадр)
Время предзагрузки промежутка : 504 мс.
Библиотека кодирования : LAME3.97
Настройки программы : -m s -V 4 -q 2 -lowpass 17 -b 128

Скриншоты

[Профиль] [ЛС]

Создавать темы 12-Июн-2016 07:53 (спустя 3 месяца 26 дней)

Топик был перенесен из форума Фильмы 2011 года в форум Фильмы 2010 года
Russian Mafia
 
Кто просматривает тему:

Форум Тема Автор Размер
Бокс, Бои без правил, К1 10 самых быстрых одноударных нокаутов в истории бокса [1982-2005, Бокс, SATRip, TVRip] Один 777 473 MB
Action G.B.R: Группа Быстрого Реагирования (RUS) [L] (Action / FPS) 2008 TorrentFilm 2.81 GB
Программы [Разное] Быстрое умножение в уме v1.10 [Android 1.6+, RUS/ENG] TorrentFilm 2 MB
Программы [Утилиты] Быстрый Поиск Текста [Android 4.0, RUS + ENG] TorrentFilm 3 MB
Фильмы 2010 года Быстрее пули / Faster (Джордж Тиллман мл. / George Tillman Jr.) [2010 г., США, боевик, триллер, драма, криминал, HDRip] AVO (Гаврилов) TorrentFilm 1.45 GB
Фильмы (HD Rips | 720p, 1080p) Быстрее, чем кролики (Дмитрий Дьяченко) [2013, Россия, комедия, BDRip 720p] TorrentFilm 5.18 GB
Фильмы (HD Rips | 720p, 1080p) Быстрее, чем кролики (Дмитрий Дьяченко) [2013, Россия, комедия, WEB-DL 720p] [Расширенная версия] TorrentFilm 3.01 GB
История, биографии, религия и искусство Быстролётов Дмитрий - Пир бессмертных 02. Превращения [Бухмин Аркадий, 2015] Magnat 222 MB
Показать сообщения:    

Текущее время: Сегодня 10:14

Часовой пояс: GMT



Вы не можете начинать темы
Вы не можете отвечать на сообщения
Вы не можете редактировать свои сообщения
Вы не можете удалять свои сообщения
Вы не можете голосовать в опросах
Вы не можете прикреплять файлы к сообщениям
Вы не можете скачивать файлы