Бывший сотрудник (Олег Ларин) [2012, Россия, драма, криминал, DVD9] R5 Sub Ukr + Original Rus

 
Автор Сообщение

TorrentFilm ®

Пол:

Стаж: 2 года

Сообщений: 7741



Награды: Нет

Торрент-статистика

Создавать темы 02-Янв-2016 00:01

[Цитировать]

-Бывший сотрудник -Страна: Россия
Студия: Триикс Медиа
Жанр: драма, криминал
Год выпуска: 2012
Дата выхода DVD: 31 мая 2012, «Монолит»
Продолжительность: 01:29:41
Перевод: Оригинал [Лицензия]
Cубтитры: украинские
Оригинальная аудиодорожка: русский-Режиссер: Олег Ларин-В ролях: Кирилл Полухин, Максим Коновалов, Михаил Полосухин, Вера Баханкова, Максим Меркулов, Юрий Архангельский, Дианна Дезмари, Никита Морозов, Вячеслав Аркунов, Полина Булычева-Описание: Артем Семенов — опер уголовного розыска, который «женат» на своей работе и как результат имеет проблемы непосредственно в семье. У Артема есть близкие друзья Назаров и Петрович, с которыми он съел не один пуд соли, на которых может положиться во всем.
В городе, после долгого отсутствия, появляется опасный преступник по кличке Медведь. Он устраивает несколько ограблений инкассаторов, безжалостно убивая всех, кто встает у него на пути. Артему и его друзьям удается арестовать бандита, Артем предупреждают, что Медведя покрывает, кто-то из сотрудников милиции, но он не придает значения этой информации. А зря…
Медведь совершает дерзкий побег, во время которого убивает Петровича. В организации побега обвиняют Артема. Прямых улик против него нет, но у него дома обнаруживают крупную сумму денег и пистолет.
Артема выгоняют со службы, он становится БС — бывшим сотрудником. Он не может устроится на работу. Бывшие коллеги не подают ему руки, преступники откровенно над ним насмехаются. Артему на собственной шкуре приходится испытать, что чувствует человек, которого «отторгает система». Артем еще не знает, что ему придется вновь столкнуться с Медведем, и узнать имя предателя, действия которого привели к гибели Петровича.
-Бонусы: Смотрите на DVD- -Качество: DVD9 R5
Формат: DVD-Video
Видео кодек: MPEG2
Аудио кодек: AC3
Видео: PAL 4:3 (720x576(0.572)) MPEG Video, 25,000 кадр/сек, 5931 Кбит/сек
Аудио: Russian (Dolby AC3, 2 ch) 384 Кбит/сек, 48,0 КГц--

DVDInfo

Title: Byvshij.sotrudnik.2012.DVD9
Size: 4.45 Gb ( 4 670 634,00 KBytes ) - DVD-9
Enabled regions: 1, 2, 3, 4, 5, 6, 7, 8
VTS_01 :
Play Length: 01:29:41
Video: PAL 4:3 (720x576) VBR
Audio:
Russian (Dolby AC3, 2 ch)
Subtitles:
Ukrainian
VTS_02 :
Play Length: 00:00:14+00:00:09+00:01:59+00:01:54+00:02:11+00:01:48
Video: PAL 16:9 (720x576) VBR, Auto Letterboxed
Audio:
Russian (Dolby AC3, 2 ch)
* Menus Information *
VIDEO_TS Menu
Video:
PAL 4:3 (720x576) VBR
Audio:
Not specified (Dolby AC3, 2 ch)
English Language Unit :
Title Menu
VTS_01 Menu
Video:
PAL 4:3 (720x576) VBR
Audio:
Not specified (Dolby AC3, 2 ch)
English Language Unit :
Root Menu
VTS_02 Menu
Video:
NTSC 4:3 (720x480) VBR
Auto Pan&Scan, Auto Letterboxed
English Language Unit :
Root Menu

MediaInfo

Общее
Полное имя : J:\Новинки 2012\Byvshij.sotrudnik.2012.DVD9\VIDEO_TS\VTS_01_2.VOB
Формат : MPEG-PS
Размер файла : 1024 Мбайт
Продолжительность : 22 м.
Режим общего битрейта : Переменный
Общий поток : 6443 Кбит/сек
Видео
Идентификатор : 224 (0xE0)
Формат : MPEG Video
Версия формата : Version 2
Профиль формата : Main@Main
Параметр BVOP формата : Да
Параметр матрицы формата : Выборочная
Параметр GOP формата : M=3, N=13
Продолжительность : 22 м.
Вид битрейта : Переменный
Битрейт : 5931 Кбит/сек
Максимальный битрейт : 9200 Кбит/сек
Ширина : 720 пикселей
Высота : 576 пикселей
Соотношение сторон : 4:3
Частота кадров : 25,000 кадров/сек
Стандарт вещания : PAL
Цветовое пространство : YUV
Субдискретизация насыщенности : 4:2:0
Битовая глубина : 8 бит
Тип развёртки : Прогрессивная
Метод сжатия : С потерями
Бит/(Пиксели*Кадры) : 0.572
Размер потока : 942 Мбайт (92%)
Основные цвета : BT.601 PAL
Характеристики трансфера : BT.470 System B, BT.470 System G
Коэффициенты матрицы : BT.601
Аудио
Идентификатор : 189 (0xBD)-128 (0x80)
Формат : AC-3
Формат/Информация : Audio Coding 3
Расширение режима : CM (complete main)
Параметр Endianness формата : Big
Режим смешивания : DVD-Video
Продолжительность : 22 м.
Вид битрейта : Постоянный
Битрейт : 384 Кбит/сек
Каналы : 2 канала
Расположение каналов : Front: L R
Частота : 48,0 КГц
Битовая глубина : 16 бит
Метод сжатия : С потерями
Задержка видео : -176 мс.
Размер потока : 61,0 Мбайт (6%)
Текст
Идентификатор : 189 (0xBD)-32 (0x20)
Формат : RLE
Формат/Информация : Run-length encoding
Режим смешивания : DVD-Video
Продолжительность : 22 м.
Задержка видео : 880 мс.

Скриншоты меню

Скриншоты фильма


-
-Раздача от группы:
[Профиль] [ЛС]
Показать сообщения:    

Текущее время: Сегодня 14:55

Часовой пояс: GMT



Вы не можете начинать темы
Вы не можете отвечать на сообщения
Вы не можете редактировать свои сообщения
Вы не можете удалять свои сообщения
Вы не можете голосовать в опросах
Вы не можете прикреплять файлы к сообщениям
Вы не можете скачивать файлы